Loading...
Error

Скачать Франклин / Franklyn (Джеральд МакМорроу / Gerald McMorrow) [2008, фентези, триллер, драма, HDRip] торрент без регистрации

 
Статистика раздачи
Размер:  1,37 GB   |    Скачан:  124 раза
Сидов:  1  [  0 KB/s  ]  
 
Автор Сообщение

МихаНЕзатор

[] 

Франклин / Franklyn

Страна: Франция, Великобритания
Жанр: фентези, триллер, драма
Год выпуска: 2008
Продолжительность: 01:37:55

Перевод: Профессиональный (многоголосый закадровый) Лицензия от 8 февраля 2011 перевод студии «Lizard Cinema Trade»
Cубтитры: нет
Режиссер: Джеральд МакМорроу / Gerald McMorrow

В ролях: Райан Филипп, Сэм Райли, Бернард Хилл, Ричард Койл, Ева Грин, Сюзанна Йорк, Джеймс Фолкнер, Мэттью Флинн

Описание: Темный город, уходящий небоскребами в хмурое небо. Здесь нет будущего, нет надежды и нет спасения. Его улицы наполнены болью и страданиями. Только Он пытается противостоять силам зла. Сквозь липкую тьму Он движется вперед, навстречу судьбе. Навстречу гибели…

Доп. информация: В основе сюжета положены судьбы четырёх главных героев.

Эссер — старый сломленный жизнью человек, скитающийся по переполненным бездомными и нищими улицам города в поисках своего пропавшего сына.
Майло— тридцатилетний мужчина, отчаянно пытающийся вернуть себе чистоту первой любви.
Эмилия — прекрасная студентка факультета искусств, чьи работы наполнены суицидальными мыслями и смертью.
Прист — безжалостный детектив, ищущий возмездия на улицах метрополиса под названием Meanwhile City, гигантского монолита, управляемого религиозными фанатиками.
Эти четверо людей — радикально разные, но в результате их миры столкнутся друг с другом и в стремительном финале полёт одной-единственной пули разрешит судьбу героев.

Слоган: «The path of single bullet decides the fate of four lost souls.»

Рэйтеинги: imdb 6.1 (6666 голосов) http://www.imdb.com/title/tt0893402/
Кинопоиск 6.587 (1117 голосов) http://www.kinopoisk.ru/level/1/film/271937/



Качество видео: HDRip
Формат видео: AVI

Видео: Xvid 720x304 24.00fps
Аудио: Dolby AC3 48000Hz 6ch 384kbps

General
Complete name : C:\Downloads\franklyn_HDRip.avi
Format : AVI
Format/Info : Audio Video Interleave
File size : 1.37 GiB
Duration : 1h 37mn
Overall bit rate : 1 999 Kbps
Movie name : Franklyn.2008.P.HDRip.[uniongang.tv]
Director : .....:::UNIONGANG:::.....
Genre : Drama/Thriller/Fantasy
Writing application : VirtualDubMod 1.5.10.2 (build 2540/release)
Original source form/Name : Movie

Video
ID : 0
Format : MPEG-4 Visual
Format profile : Advanced Simple@L5
Format settings, BVOP : 4
Format settings, QPel : No
Format settings, GMC : No warppoints
Format settings, Matrix : Default (MPEG)
Codec ID : XVID
Codec ID/Hint : XviD
Duration : 1h 37mn
Bit rate : 1 605 Kbps
Width : 720 pixels
Height : 304 pixels
Display aspect ratio : 2.35:1
Frame rate : 24.000 fps
Color space : YUV
Chroma subsampling : 4:2:0
Bit depth : 8 bits
Scan type : Progressive
Compression mode : Lossy
Bits/(Pixel*Frame) : 0.306
Stream size : 1.10 GiB (80%)
Writing library : XviD 1.2.1 (UTC 2008-12-04)

Audio
ID : 1
Format : AC-3
Format/Info : Audio Coding 3
Mode extension : CM (complete main)
Codec ID : 2000
Duration : 1h 37mn
Bit rate mode : Constant
Bit rate : 384 Kbps
Channel(s) : 6 channels
Channel positions : Front: L C R, Side: L R, LFE
Sampling rate : 48.0 KHz
Bit depth : 16 bits
Compression mode : Lossy
Delay relative to video : 2s 409ms
Stream size : 269 MiB (19%)
Alignment : Split accross interleaves
Interleave, duration : 42 ms (1.00 video frame)
Interleave, preload duration : 500 ms



Скачать Франклин.Franklyn.(Джеральд.МакМорроу.Gerald.McMorrow).[2008.фентези.триллер.драма.HDRip].torrent без регистрации
Золото ЗОЛОТАЯ РАЗДАЧА! СКАЧАННОЕ НЕ ЗАСЧИТЫВАЕТСЯ! Золото
Дата: Зарегистрирован   [ Тип: внутренний ] Как тут cкачать?
MAGNET ссылка
MAGNET ссылка


Скачать .torrent

14 KB

Статус: проверено DHT
Скачан: торрент - 124 раз, раздача полностью - 31 раз
Размер: 1,37 GB
Оценка:  5 (Голосов: 1)
Поблагодарили: 1
Поделиться ссылкой на эту раздачу с друзьями:
В контактеFacebookОдноклассникиTwitterLivejournalМой МирLiveinternet
 

 
Показать сообщения:    


Вы не можете начинать темы
Вы не можете отвечать на сообщения
Вы не можете редактировать свои сообщения
Вы не можете удалять свои сообщения
Вы не можете голосовать в опросах
Вы не можете прикреплять файлы к сообщениям
Вы можете скачивать файлы