Loading...
Error

Скачать Дикая вишня / Wild Cherry (Дэна Лустиг / Dana Lustig) [2009, комедия, DVDRip] [Лицензия] торрент без регистрации

 
Статистика раздачи
Размер:  741 MB   |    Скачан:  164 раза
Сидов:  1  [  0 KB/s  ]  
 
Автор Сообщение

МихаНЕзатор

[] 

Информация о фильме
Название: Дикая вишня
Оригинальное название: Wild Cherry
Год выхода: 2009
Жанр: комедия
Режиссер: Дэна Лустиг / Dana Lustig
В ролях: Румер Уиллис /Rumer Willis/, Таня Рэймонд /Tania Raymonde/, Кристин Каваллари /Kristin Cavallari/, Райан Мерриман /Ryan Merriman/, Джесси Мосс /Jesse Moss/, Джон Уайт /John White/

О фильме:
Девственница из выпускного класса решает расквитаться со своим парнем-качком, когда обнаруживает, что он встречается с ней только потому, что надеется занести ее в свою книжку сексуальных достижений


Страна: США, Канада
Продолжительность: 01:21:46
Перевод: Профессиональный (многоголосый закадровый) | Лицензия

Файл
Кодек: XviD / MP3
Качество: DVDRip
Видео: XviD, 656x368 (16:9), 25.000 fps, 1 130 Kbps (0.187 bit/pixel)
Звук: MP3, 48.0 KHz, 2 ch, 128 Kbps, CBR

Семпл
General
Complete name : E:Wild.Cherry_[Rutor.org].avi
Format : AVI
Format/Info : Audio Video Interleave
File size : 741 MiB
Duration : 1h 21mn
Overall bit rate : 1 267 Kbps
Writing application : VirtualDubMod 1.5.10.2 (build 2540/release)
Writing library : VirtualDub build 32842/release

Video
ID : 0
Format : MPEG-4 Visual
Format profile : Advanced Simple@L5
Format settings, BVOP : 1
Format settings, QPel : No
Format settings, GMC : No warppoints
Format settings, Matrix : Custom
Codec ID : XVID
Codec ID/Hint : XviD
Duration : 1h 21mn
Bit rate : 1 130 Kbps
Width : 656 pixels
Height : 368 pixels
Display aspect ratio : 16:9
Frame rate : 25.000 fps
Color space : YUV
Chroma subsampling : 4:2:0
Bit depth : 8 bits
Scan type : Progressive
Compression mode : Lossy
Bits/(Pixel*Frame) : 0.187
Stream size : 661 MiB (89%)
Writing library : XviD 1.2.1 (UTC 2008-12-04)

Audio
ID : 1
Format : MPEG Audio
Format version : Version 1
Format profile : Layer 3
Codec ID : 55
Codec ID/Hint : MP3
Duration : 1h 21mn
Bit rate mode : Constant
Bit rate : 128 Kbps
Channel(s) : 2 channels
Sampling rate : 48.0 KHz
Compression mode : Lossy
Stream size : 74.7 MiB (10%)
Alignment : Aligned on interleaves
Interleave, duration : 40 ms (1.00 video frame)
Interleave, preload duration : 504 ms
Writing library : LAME3.97



Скачать Дикая.вишня.Wild.Cherry.(Дэна.Лустиг.Dana.Lustig).[2009.комедия.DVDRip].[Лицензия].torrent без регистрации
Золото ЗОЛОТАЯ РАЗДАЧА! СКАЧАННОЕ НЕ ЗАСЧИТЫВАЕТСЯ! Золото
Дата: Зарегистрирован   [ Тип: внутренний ] Как тут cкачать?
MAGNET ссылка
MAGNET ссылка


Скачать .torrent

15 KB

Статус: проверено DHT
Скачан: торрент - 164 раз, раздача полностью - 96 раз
Размер: 741 MB
Оценка:  5 (Голосов: 1)
Поблагодарили: 3
Поделиться ссылкой на эту раздачу с друзьями:
В контактеFacebookОдноклассникиTwitterLivejournalМой МирLiveinternet
 

 
Показать сообщения:    


Вы не можете начинать темы
Вы не можете отвечать на сообщения
Вы не можете редактировать свои сообщения
Вы не можете удалять свои сообщения
Вы не можете голосовать в опросах
Вы не можете прикреплять файлы к сообщениям
Вы можете скачивать файлы