Loading...
Error

Скачать Питер FM (Оксана Бычкова) [2006, романтическая комедия, DVD5] торрент без регистрации

 
Статистика раздачи
Размер:  4,37 GB   |    Скачан:  158 раз
Сидов:  1  [  0 KB/s  ]  
 
Автор Сообщение

МихаНЕзатор

[] 

Год выпуска: 2006
Жанр: романтическая комедия
Продолжительность: 01:24:00
Режиссер: Оксана Бычкова
В ролях: Екатерина Федулова, Евгений Цыганов, Владимир Машков, Андрей Краско, Татьяна Кравченко, Александр Баширов, Ирина Рахманова
Описание: Маша диджей на популярном питерском радио, Максим молодой архитектор. Маша готовится к свадьбе с бывшим одноклассником Костей, Максим победил в международном конкурсе архитекторов, и теперь его зовут на работу в Германию. Но оба они не уверены, что им нужно именно это.

Максима удерживает в Питере любовь к девушке, которая его оставила, а Маша чувствует, что ее жених Костя совсем не тот человек, который ей нужен. И, кто знает, как бы повернулась их судьба, если бы не Случай Маша теряет мобильный телефон, а Максим его находит

Такая история могла произойти только в большом городе, который сталкивает и разводит персонажей на своих улицах. Это лирическая история о двух молодых людях, оказавшихся перед выбором, когда каждый должен решить что же для него действительно важно?

Возникший между героями «телефонный роман», понимание и тепло, которые они нашли друг в друге, помогают им отыскать верное решение своих проблем. Выбор сделан. И теперь, казалось бы, ничто не мешает Маше и Максиму встретиться


Качество: DVD5
Формат: DVD Video
Видео кодек: MPEG2
Аудио кодек: AC3
Видео: PAL 4:3 (720x576) VBR
Аудио: Russian (Dolby AC3, 6 ch), Russian (Dolby AC3, 2 ch)
Видео
Идентификатор : 224 (0xE0)
Формат : MPEG Video
Версия формата : Version 2
Профиль формата : Main@Main
Параметр BVOP формата : Да
Параметр матрицы формата : По умолчанию
Продолжительность : 19 м.
Вид битрейта : Постоянный
Битрейт : 6733 Кбит/сек
Номинальный битрейт : 9800 Кбит/сек
Ширина : 720 пикс.
Высота : 576 пикс.
Соотношение сторон : 4:3
Частота кадров : 25,000 кадр/сек
Стандарт вещания : PAL
Цветовое пространство : YUV
Подвыборка цветности : 4:2:0
Битовая глубина : 8 бит
Тип развёртки : Чересстрочная
Порядок развёртки : Нижнее поле первое
Метод сжатия : С потерями
Бит/(Пиксели*Кадры) : 0.649
Размер потока : 916 Мбайт (90%)

Аудио #1
Идентификатор : 189 (0xBD)-128 (0x80)
Формат : AC-3
Формат/Информация : Audio Coding 3
Расширение режима : CM (complete main)
Режим смешивания : DVD-Video
Продолжительность : 19 м.
Вид битрейта : Постоянный
Битрейт : 448 Кбит/сек
Каналы : 6 каналов
Расположение каналов : Front: L C R, Side: L R, LFE
Частота : 48,0 КГц
Битовая глубина : 16 бит
Метод сжатия : С потерями
Задержка видео : -40 мс.
Размер потока : 61,0 Мбайт (6%)

Аудио #2
Идентификатор : 189 (0xBD)-129 (0x81)
Формат : AC-3
Формат/Информация : Audio Coding 3
Расширение режима : CM (complete main)
Режим смешивания : DVD-Video
Продолжительность : 19 м.
Вид битрейта : Постоянный
Битрейт : 192 Кбит/сек
Каналы : 2 канала
Расположение каналов : Front: L R
Частота : 48,0 КГц
Битовая глубина : 16 бит
Метод сжатия : С потерями
Задержка видео : -40 мс.
Размер потока : 26,1 Мбайт (3%)



Скачать Питер.FM.(Оксана.Бычкова).[2006.романтическая.комедия.DVD5].torrent без регистрации
Золото ЗОЛОТАЯ РАЗДАЧА! СКАЧАННОЕ НЕ ЗАСЧИТЫВАЕТСЯ! Золото
Дата: Зарегистрирован   [ Тип: внутренний ] Как тут cкачать?
MAGNET ссылка
MAGNET ссылка


Скачать .torrent

24 KB

Статус: проверено DHT
Скачан: торрент - 158 раз, раздача полностью - 35 раз
Размер: 4,37 GB
Оценка:  5 (Голосов: 1)
Поблагодарили: 1
Поделиться ссылкой на эту раздачу с друзьями:
В контактеFacebookОдноклассникиTwitterLivejournalМой МирLiveinternet
 

 
Показать сообщения:    


Вы не можете начинать темы
Вы не можете отвечать на сообщения
Вы не можете редактировать свои сообщения
Вы не можете удалять свои сообщения
Вы не можете голосовать в опросах
Вы не можете прикреплять файлы к сообщениям
Вы можете скачивать файлы