Loading...
Error

/ Supernatural ( 2, 1-22 (22)) ( ) [20062007, , , ] [BDRip 720p] [Ren-Tv, NovaFilm; rus/eng subs]

 
57,62 GB   |    :  424
1  [  0 KB/s  ]  
 

Lexus

[] 

| | | | |
2009

/ Supernatural [Season 2]
Scary Just Got Sexy

: 20062007
: | The CW
: ~00:48 x22 | 22 x2,20
: ( ) / , /
: (, 3, 4,6,8,12,14,16,18,20,22 *),
:
: , , ,
: , Chevrolet Impala 1967 , , , , .
: uxTuaHgp
DON
* - ~1 , "Previosly on Supernatural", . : 1 ,

: BDRip [720p]
: MKV
: H.264
: AC3
: 1280x720, 23.976 fps, ~7 Mbps, 0.351 bit/pixel
#1: AC3 2.0, 48 KHz, 192 kbps |Ren-Tv|
#2: AC3 5.1, 48 KHz, 384 kbps |NovaFilm & FarGate|
#3: AC3 5.1, 48 KHz, 640 kbps | |
1. In My Time of Dying
2. Everybody Loves A Clown
3. Bloodlust
4. Children Shouldn't Play With Dead Things
5. Simon Said
6. No Exit
7. The Usual Suspects
8. Crossroad Blues
9. Croatoan
10. Hunted
11. Playthings
12. Nightshifter
13. Houses of the Holy
14. Born Under A Bad Sign
15. Tall Tales
16. Roadkill
17. Heart
18. Hollywood Babylon
19. Folsom Prison Blues
20. What Is and What Should Never Be
21. All Hell Breaks Loose, Part 1
22. All Hell Breaks Loose, Part 2

:

Format : Matroska
File size : 2.64 GiB
Duration : 42mn 11s
Overall bit rate : 8 967 Kbps
Movie name : Release by uxTuaHgp
Encoded date : UTC 2011-03-06 07:09:23
Writing application : mkvmerge v2.5.3 ('Boogie') built on Mar 7 2009 15:00:41
Writing library : libebml v0.7.7 + libmatroska v0.8.1
Video
ID : 1
Format : AVC
Format/Info : Advanced Video Codec
Format profile : High@L4.1
Format settings, CABAC : Yes
Format settings, ReFrames : 9 frames
Format settings, GOP : M=7, N=32
Codec ID : V_MPEG4/ISO/AVC
Duration : 42mn 11s
Bit rate : 7 750 Kbps
Width : 1 280 pixels
Height : 720 pixels
Display aspect ratio : 16:9
Frame rate : 23.976 fps
Color space : YUV
Chroma subsampling : 4:2:0
Bit depth : 8 bits
Scan type : Progressive
Bits/(Pixel*Frame) : 0.351
Stream size : 2.23 GiB (84%)
Title : Supernatural S02 E01 In My Time of Dying
Writing library : x264 core 114 r1900 60ef1f8
Encoding settings : cabac=1 / ref=9 / deblock=1:-3:-3 / analyse=0x3:0x113 / me=umh / subme=9 / psy=1 / psy_rd=1.00:0.00 / mixed_ref=1 / me_range=32 / chroma_me=1 / trellis=1 / 8x8dct=1 / cqm=0 / deadzone=21,11 / fast_pskip=0 / chroma_qp_offset=-2 / threads=18 / sliced_threads=0 / nr=0 / decimate=0 / interlaced=0 / constrained_intra=0 / bframes=6 / b_pyramid=2 / b_adapt=1 / b_bias=0 / direct=1 / weightb=1 / open_gop=0 / weightp=2 / keyint=250 / keyint_min=23 / scenecut=40 / intra_refresh=0 / rc_lookahead=40 / rc=2pass / mbtree=1 / bitrate=7750 / ratetol=1.0 / qcomp=0.60 / qpmin=0 / qpmax=69 / qpstep=4 / cplxblur=20.0 / qblur=0.5 / ip_ratio=1.40 / aq=1:0.80
Language : English
Audio #1
ID : 2
Format : AC-3
Format/Info : Audio Coding 3
Mode extension : CM (complete main)
Codec ID : A_AC3
Duration : 42mn 11s
Bit rate mode : Constant
Bit rate : 192 Kbps
Channel(s) : 2 channels
Channel positions : Front: L R
Sampling rate : 48.0 KHz
Bit depth : 16 bits
Compression mode : Lossy
Stream size : 57.9 MiB (2%)
Title : AC3 2.0 @ 192 kbps [Ren-Tv]
Language : Russian
Audio #2
ID : 3
Format : AC-3
Format/Info : Audio Coding 3
Mode extension : CM (complete main)
Codec ID : A_AC3
Duration : 42mn 11s
Bit rate mode : Constant
Bit rate : 384 Kbps
Channel(s) : 6 channels
Channel positions : Front: L C R, Side: L R, LFE
Sampling rate : 48.0 KHz
Bit depth : 16 bits
Compression mode : Lossy
Stream size : 116 MiB (4%)
Title : AC3 5.1 @ 384 kbps [NovaFilm]
Language : Russian
Audio #3
ID : 4
Format : AC-3
Format/Info : Audio Coding 3
Mode extension : CM (complete main)
Codec ID : A_AC3
Duration : 42mn 11s
Bit rate mode : Constant
Bit rate : 640 Kbps
Channel(s) : 6 channels
Channel positions : Front: L C R, Side: L R, LFE
Sampling rate : 48.0 KHz
Bit depth : 16 bits
Compression mode : Lossy
Stream size : 193 MiB (7%)
Title : AC3 5.1 @ 640 kbps
Language : English
Text #1
ID : 5
Format : UTF-8
Codec ID : S_TEXT/UTF8
Codec ID/Info : UTF-8 Plain Text
Language : English
Text #2
ID : 6
Format : UTF-8
Codec ID : S_TEXT/UTF8
Codec ID/Info : UTF-8 Plain Text
Language : Russian




.Supernatural.(.2..1-22.(22)).(.).[20062007...].[BDRip.720p].[Ren-Tv.NovaFilm;.rus.eng.subs].torrent
  ! ! 
:   [ : ] c?
MAGNET
MAGNET


.torrent

290 KB

: DHT
: - 424 , - 177
: 57,62 GB
5 (: 3)
: 4
:
 FacebookTwitterLivejournal Liveinternet
 

 
: