Loading...
Error

Скачать Багдадский вор / The Thief of Bagdad (Людвиг Бергер, Майкл Пауэлл, Тим Уилан) [1940, Сказка, приключения, семейный, DVDRip] [olegek70] торрент без регистрации

 
Статистика раздачи
Размер:  2,05 GB   |    Скачан:  173 раза
Сидов:  1  [  0 KB/s  ]  
 
Автор Сообщение

Marsianka

[] 

Информация о фильме
Название: Багдадский вор
Оригинальное название: The Thief of Bagdad
Год выхода: 1940
Жанр: Сказка, приключения, семейный
Режиссер: Людвиг Бергер, Майкл Пауэлл, Тим Уилан
В ролях: Майлз Маллесон, Сабу, Джун Дюпре, Джон Джастин, Рекс Ингрэм, Конрад Фейдт, Хэй Петри

О фильме:
В славном городе Багдаде, в великолепном дворце, в атмосфере роскоши и неги жил молодой король Ахмет, наследник, великого царя Гарун Аль Рашида. Был король Ахмет красив, и имел он 365 жен, но в душе короля не жила любовь. И не знал он проблем своего народа, потому что между королем и его подданными стоял великий визирь Джафар колдун и интриган. Именно Джафар предложил скучающему правителю заманчивую идею переодеться бедняком и «инкогнито» совершить «познавательную» экскурсию по родному городу. А когда наивный Ахмет последовал совету своего «верного» визиря, коварный Джафар объявил короля сумасшедшим, приказал схватить его и бросить в темницу. В тюрьме Ахмет подружился с мелким воришкой Абу, и они вместе бежали в соседнее королевство. Там царственный изгнанник влюбился в юную принцессу, и принцесса ответила ему взаимностью Но колдун Джафар решил помешать счастью влюбленных. Он наложил проклятье на Ахмета, ослепив юношу, а его товарища Абу превратил в собаку


Страна: США, Великобритания
Студия: London Film Productions
Продолжительность: 01:46:13
Перевод: Профессиональный, многоголосый

Файл
Кодек: AVI, XviD
Качество: DVDRip
Видео: XviD, 2372 Кбит/с, 720x544
Звук: Русский, английский (AC3, 2 ch, 192 Кбит/с)
Субтитры: нет
Дата релиза: 14.06.2011
D:888Bagdadskiy.vor.1940.XviD.DVDRip.olegek70.avi
General
Complete name : D:888Bagdadskiy.vor.1940.XviD.DVDRip.olegek70.avi
Format : AVI
Format/Info : Audio Video Interleave
Format profile : OpenDML
File size : 2.05 GiB
Duration : 1h 46mn
Overall bit rate : 2 768 Kbps
Writing application : VirtualDubMod 1.5.4.1 (build 2178/release)
Writing library : VirtualDubMod build 2178/release
Video
Format : MPEG-4 Visual
Format profile : Streaming Video@L1
Format settings, BVOP : No
Format settings, QPel : No
Format settings, GMC : No warppoints
Format settings, Matrix : Custom
Codec ID : XVID
Codec ID/Hint : XviD
Duration : 1h 46mn
Bit rate : 2 372 Kbps
Width : 720 pixels
Height : 544 pixels
Display aspect ratio : 4/3
Frame rate : 25.000 fps
Resolution : 24 bits
Colorimetry : 4:2:0
Scan type : Progressive
Bits/(Pixel*Frame) : 0.242
Stream size : 1.76 GiB (86%)
Writing library : XviD 50
Audio
Format : AC-3
Format/Info : Audio Coding 3
Codec ID : 2000
Duration : 1h 46mn
Bit rate mode : Constant
Bit rate : 192 Kbps
Channel(s) : 2 channels
Channel positions : L R
Sampling rate : 48.0 KHz
Stream size : 146 MiB (7%)
Alignment : Aligned on interleaves
Interleave, duration : 96 ms (2.40 video frames)
Interleave, preload duration : 96 ms
Language : Russian
Audio
Format : AC-3
Format/Info : Audio Coding 3
Codec ID : 2000
Duration : 1h 46mn
Bit rate mode : Constant
Bit rate : 192 Kbps
Channel(s) : 2 channels
Channel positions : L R
Sampling rate : 48.0 KHz
Stream size : 146 MiB (7%)
Alignment : Aligned on interleaves
Interleave, duration : 96 ms (2.40 video frames)
Interleave, preload duration : 96 ms
Language : English
Семпл Релиз от:



Скачать Багдадский.вор.The.Thief.of.Bagdad.(Людвиг.Бергер.Майкл.Пауэлл.Тим.Уилан).[1940.Сказка.приключения.семейный.DVDRip].[olegek70].torrent без регистрации
Золото ЗОЛОТАЯ РАЗДАЧА! СКАЧАННОЕ НЕ ЗАСЧИТЫВАЕТСЯ! Золото
Дата: Зарегистрирован   [ Тип: внутренний ] Как тут cкачать?
MAGNET ссылка
MAGNET ссылка


Скачать .torrent

11 KB

Статус: проверено DHT
Скачан: торрент - 173 раз, раздача полностью - 16 раз
Размер: 2,05 GB
Оценка:  5 (Голосов: 1)
Поблагодарили: 2
Поделиться ссылкой на эту раздачу с друзьями:
В контактеFacebookОдноклассникиTwitterLivejournalМой МирLiveinternet
 

 

avt7k32

[] 

Встаньте пожалуйста на раздачу!!!
 
Показать сообщения:    


Вы не можете начинать темы
Вы не можете отвечать на сообщения
Вы не можете редактировать свои сообщения
Вы не можете удалять свои сообщения
Вы не можете голосовать в опросах
Вы не можете прикреплять файлы к сообщениям
Вы можете скачивать файлы