Loading...
Error

Скачать Сверхъестественное / Supernatural / Сезон: 6 / Серии: 1-19 (22) (Роберт Сингер) [2010, ужасы, триллер, драма, детектив, HDTVRip] [sub] торрент без регистрации

 
Статистика раздачи
Размер:  6,5 GB   |    Скачан:  208 раз

Полного источника не было: 25 минут

 
Автор Сообщение

Lexus

[] 

Сверхъестественное / Supernatural
Год выпуска: 2010
Страна: США
Жанр: ужасы, триллер, драма, детектив
Продолжительность: ~42 мин
Перевод: отсутствует
Русские субтитры: есть
Субтитры: группы TrueTransLate
Режиссёр: Роберт Сингер
В ролях: Джаред Падалекки, Дженсен Экклз, Миша Коллинз, Джим Бивер и др.
Описание: Ну что, всё сначала, всё то же самое? Два брата, бесконечная дорога и до чёртиков пугающие монстры? То же, да не совсем: для ребят, которые начали и закончили Апокалипсис, обычные монстры больше не годятся. Да и помимо монстров есть над чем поломать голову. Смотрите шестой сезон Supernatural.

Качество: HDTVRip
Формат: AVI
Видео кодек: XviD
Аудио кодек: MP3
Видео: 624x352 (16:9), 23,976 fps, XviD MPEG-4 1 030 kbps avg, 0.196 bit/pixel
Аудио: 48,0 kHz, MPEG Layer 3, 2 ch, 128 kbps avg
Доп. информация
Релиз:
General
Complete name : D:\Supernatural s06\Supernatural.s06e07.Family.Matters\Supernatural.s06e07.Family.Matters.ru.truetranslate.tv.avi
Format : AVI
Format/Info : Audio Video Interleave
File size : 349 MiB
Duration : 40mn 39s
Overall bit rate : 1 200 Kbps
Writing application : MEncoder SVN-r30531-4.3.2
Writing library : MPlayer
Video
ID : 0
Format : MPEG-4 Visual
Format profile : Advanced Simple@L5
Format settings, BVOP : Yes
Format settings, QPel : No
Format settings, GMC : No warppoints
Format settings, Matrix : Default (H.263)
Codec ID : XVID
Codec ID/Hint : XviD
Duration : 40mn 38s
Bit rate : 1 060 Kbps
Width : 624 pixels
Height : 352 pixels
Display aspect ratio : 16:9
Frame rate : 23.976 fps
Color space : YUV
Chroma subsampling : 4:2:0
Bit depth : 8 bits
Scan type : Progressive
Bits/(Pixel*Frame) : 0.201
Stream size : 308 MiB (88%)
Writing library : XviD 1.2.1 (UTC 2008-12-04)
Audio
ID : 1
Format : MPEG Audio
Format version : Version 1
Format profile : Layer 3
Mode : Joint stereo
Mode extension : MS Stereo
Codec ID : 55
Codec ID/Hint : MP3
Duration : 40mn 39s
Bit rate mode : Variable
Bit rate : 128 Kbps
Channel(s) : 2 channels
Sampling rate : 48.0 KHz
Stream size : 37.2 MiB (11%)
Alignment : Aligned on interleaves
Interleave, duration : 24 ms (0.58 video frame)
Interleave, preload duration : 540 ms
Внимание! Раздача ведётся путём добавления новых серий; при каждом добавлении создётся новый торрент. Чтобы начать докачку новой серии, пользователям необходимо сделать следующее: (1) остановить скачивание, (2) удалить старый торрент у себя из клиента (старые серии удалять не надо), (3) скачать новый торрент и запустить его у себя в клиенте вместо старого, при этом указать клиенту путь в старую папку куда и должно происходить скачивание новых серий.
Ваш клиент при этом должен произвести хеширование (проверку) старой папки (если не производит сам - помогите ему сделать это), и будет докачивать только те серии которых у вас ещё нет. Старые серии при этом не удаляются, а продолжают раздаваться!
Eсли вы уже удалили старые серии, то предотвратить повторную закачку старых серий можно, отжав галочку в соответсвующих местах при запуске нового торрента.



Скачать Сверхъестественное.Supernatural.Сезон.6.Серии.1-19.(22).(Роберт.Сингер).[2010.ужасы.триллер.драма.детектив.HDTVRip].[sub].torrent без регистрации
Золото ЗОЛОТАЯ РАЗДАЧА! СКАЧАННОЕ НЕ ЗАСЧИТЫВАЕТСЯ! Золото
Дата: Зарегистрирован   [ Тип: внутренний ] Как тут cкачать?
MAGNET ссылка
MAGNET ссылка


Скачать .torrent

36 KB

Статус: проверено DHT
Скачан: торрент - 208 раз, раздача полностью - 2 раз
Размер: 6,5 GB
Оценка:  - (Голосов: 0)
Поблагодарили: 1
Поделиться ссылкой на эту раздачу с друзьями:
В контактеFacebookОдноклассникиTwitterLivejournalМой МирLiveinternet
 

 
Показать сообщения:    


Вы не можете начинать темы
Вы не можете отвечать на сообщения
Вы не можете редактировать свои сообщения
Вы не можете удалять свои сообщения
Вы не можете голосовать в опросах
Вы не можете прикреплять файлы к сообщениям
Вы можете скачивать файлы