Loading...
Error

Скачать Сверхъестественное / Supernatural / Сезон: 6 / Серии: 21-22 из 22 (Роберт Сингер) [2011, Мистика, Ужасы, Триллер WEB-DL 720p] [Christopher] торрент без регистрации

 
Статистика раздачи
Размер:  2,79 GB   |    Скачан:  198 раз
Сидов:  1  [  0 KB/s  ]  
 
Автор Сообщение

Lexus

[] 

Сверхъестественное / Supernatural


Год выпуска: 2011
Страна: США
Жанр: Мистика, Ужасы, Триллер
Сезон : 6
Серия : 21-22
Продолжительность: 00:41
Перевод: любительский одноголосый закадровый (автор)
Русские субтитры: нет
Режиссёр: Роберт Сингер
Озвучка: Christopher
В ролях: Джаред Падалеки, Дженсен Эклс, Джим Бивер, Миша Коллинз, Джеффри Дин Морган и другие.
Описание: Сериал рассказывает о приключениях братьев Сэма и Дина Винчестеров, которые путешествуют по Соединённым Штатам на чёрном автомобиле Chevrolet Impala 1967 года, расследуют паранормальные явления, многие из которых основаны на американских городских легендах и фольклоре, и сражаются с порождениями зла, такими как демоны и призраки.
Ссылка на предыдущие и альтернативные раздачи:
Сэмпл

[b]Качество
: WEB-DL 720p
Формат: MKV
Видео кодек: AVC
Аудио кодек: AC3
Видео: 23,976 fps; 1280x720; 4 707 Kbps, Bits/(Pixel*Frame) : 0.183
Аудио: 192 Kbps; 48 000 Hz; Stereo; AC3
Аудио 2: 384 Kbps; 48 000 Hz; 5.1; AC3
06x01 Возвращение к истокам (Exile on Main St.)
06x02 Два с половиной человека (Two and a Half Men)
06x03 Третий человек (The Third Man)
06x04 Выходные у Бобби (Weekend at Bobby's)
06x05 Жизнь свободна или Сумеречна (Live Free or TwiHard)
06x06 Ты не вынесешь правды (You Can't Handle the Truth)
06x07 Дела семейные (Family Matters)
06x08 Все псы попадают в рай (All Dogs Go to Heaven)
06x09 Хлопни в ладоши, если веришь (Clap Your Hands If You Believe...)
06x10 Страсть за решёткой (Caged Heat)
06x11 Свидание в Самарре (Appointment in Samarra)
06x12 Словно девственница (Like a Virgin)
06x13 Непрощённый (Unforgiven)
06x14 Манекен 3: Расплата (Mannequin 3: The Reckoning)
06x15 Ошибка по-французски (The French Mistake)
06x16 …И никого не стало (…And Then There Were None)
06x17 Моё сердце будет биться дальше (My Heart Will Go On)
06x18 Западная земля (Frontierland)
06x19 Дорогая мамочка (Mommy Dearest)
06x20 Человек, который хотел стать королём (The Man Who Would Be King)
06x21 Пусть льется кровь (Let It Bleed)
06x22 Человек, который слишком много знал (The Man Who Knew Too Much)

06x21

06x22

General
Format : Matroska
File size : 1.40 GiB
Duration : 42mn 26s
Overall bit rate : 4 707 Kbps
Encoded date : UTC 2011-05-24 08:50:08
Writing application : mkvmerge v4.0.0 ('The Stars were mine') сборка от Jun 6 2010 16:18:42
Writing library : libebml v1.0.0 + libmatroska v1.0.0
Video
ID : 1
Format : AVC
Format/Info : Advanced Video Codec
Format profile : High@L3.1
Format settings, CABAC : No
Format settings, ReFrames : 2 frames
Muxing mode : Container profile=Unknown@3.1
Codec ID : V_MPEG4/ISO/AVC
Duration : 42mn 23s
Bit rate : 4 037 Kbps
Width : 1 280 pixels
Height : 720 pixels
Display aspect ratio : 16:9
Frame rate : 23.976 fps
Resolution : 8 bits
Colorimetry : 4:2:0
Scan type : Progressive
Bits/(Pixel*Frame) : 0.183
Stream size : 1.20 GiB (86%)
Color primaries : BT.709-5, BT.1361, IEC 61966-2-4, SMPTE RP177
Transfer characteristics : BT.709-5, BT.1361
Matrix coefficients : BT.709-5, BT.1361, IEC 61966-2-4 709, SMPTE RP177
Audio #1
ID : 2
Format : AC-3
Format/Info : Audio Coding 3
Codec ID : A_AC3
Duration : 42mn 26s
Bit rate mode : Constant
Bit rate : 192 Kbps
Channel(s) : 2 channels
Channel positions : L R
Sampling rate : 48.0 KHz
Stream size : 58.3 MiB (4%)
Title : Christopher
Language : Russian
Audio #2
ID : 3
Format : AC-3
Format/Info : Audio Coding 3
Codec ID : A_AC3
Duration : 42mn 26s
Bit rate mode : Constant
Bit rate : 384 Kbps
Channel(s) : 6 channels
Channel positions : Front: L C R, Surround: L R, LFE
Sampling rate : 48.0 KHz
Stream size : 117 MiB (8%)
Title : Original



Скачать Сверхъестественное.Supernatural.Сезон.6.Серии.21-22.из.22.(Роберт.Сингер).[2011.Мистика.Ужасы.Триллер.WEB-DL.720p].[Christopher].torrent без регистрации
Золото ЗОЛОТАЯ РАЗДАЧА! СКАЧАННОЕ НЕ ЗАСЧИТЫВАЕТСЯ! Золото
Дата: Зарегистрирован   [ Тип: внутренний ] Как тут cкачать?
MAGNET ссылка
MAGNET ссылка


Скачать .torrent

15 KB

Статус: проверено DHT
Скачан: торрент - 198 раз, раздача полностью - 5 раз
Размер: 2,79 GB
Оценка:  - (Голосов: 0)
Поблагодарили: 1
Поделиться ссылкой на эту раздачу с друзьями:
В контактеFacebookОдноклассникиTwitterLivejournalМой МирLiveinternet
 

 
Показать сообщения:    


Вы не можете начинать темы
Вы не можете отвечать на сообщения
Вы не можете редактировать свои сообщения
Вы не можете удалять свои сообщения
Вы не можете голосовать в опросах
Вы не можете прикреплять файлы к сообщениям
Вы можете скачивать файлы