Loading...
Error

Скачать Своя правда / Justified / Сезон 1 / Серии 6-9 (13) (Адам Аркин, Джон Эвнет, Майкл Диннер) [2010 г., драма, HDRip] (Кубик в Кубе | Original) торрент без регистрации

 
Статистика раздачи
Размер:  3,29 GB   |    Скачан:  5690 раз

Полного источника не было: 24 минуты

 
Автор Сообщение

Lexus

[] 


Своя правда / Justified


Год выпуска: 2010
Страна: США
Жанр: драма
Продолжительность: ~ 00:44:00
Перевод: Профессиональный (двухголосый, закадровый) /Кубик в Кубе/
Субтитры: Отсутствуют
Режиссер: Адам Аркин, Джон Эвнет, Майкл Диннер
В ролях:
Тимоти Олифант (Raylan Givens), Натали Зиа (Winona Hawkins), Ник Сирси (Chief Deputy Art Mullen), Джекоб Питтс (Tim Gutterson), Erica N. Tazel (Rachel Brooks), Джоэль Картер (Ava Crowder), Уолтон Гоггинс (Boyd Crowder), Кейтлин Девер (Loretta McCready), Уильям Рэгсдэйл (Gary Hawkins), Дэвид Хилл (US Marshal), Дэвид Мюнье (Johnny Crowder), М. К. Гейни (Bo Crowder) и др.

Описание:
Федеральный маршал Рейлан Гивенс убил человека, не первого, и далеко не последнего. Хоть убитый и был преступником, но методы маршала Гивенса не одобряются начальством. В наказание его отправили работать в Кентукки, на родину. Гивенс ненавидит Кентукки. К тому же, там его НЕ ждут бывшая жена; бывшие друзья, ставшие преступниками; обычные преступники, которые не любят, когда им мешают, и отец, который всегда был в неладах с законом. Конечно, у каждого из них своя правда, но федеральный маршал Рейлан Гивенс имеет в своем арсенале несколько весьма убедительных аргументов — в их числе, убийственное чувство юмора, глок и, разумеется, шляпа.
«Своя правда» — одна из самых своеобразных новинок сезона, сочетающая в себе крайне интересное отражение жизни американской глубинки, дух спагетти-вестернов, южный акцент и гениальные диалоги.

Качество: HDRip (источник: / BDRip 720p)
Формат: AVI
Видео кодек: XviD
Аудио кодек: AC3
Видео: 720*400 (1.80), 23.976 fps, XviD MPEG-4, ~2000 kbps, 0.36 bit/pixel
Аудио #1: 48 kHz, AC3 Dolby Digital, 5.1 ch, 384 kbps avg / Кубик в Кубе /
Аудио #2: 48 kHz, AC3 Dolby Digital, 5.1 ch, 384 kbps avg / Оригинал /
Перевод: Madchester
Озвучка: «Кубик в Кубе»

| Сэмпл | IMDb | КиноПоиск


- 16.03.2010 01 - Fire in the Hole
- 23.03.2010 02 - Riverbrook
- 30.03.2010 03 - Fixer
- 06.04.2010 04 - Long in the Tooth
- 13.04.2010 05 - The Lord of War and Thunder
- 20.04.2010 06 - The Collection / Коллекция
- 27.04.2010 07 - Blind Spot / Неверные Суждения
- 04.05.2010 08 - Blowback / Отдача
- 11.05.2010 09 - Hatless / Без Шляпы
- 18.05.2010 10 - The Hammer
- 25.05.2010 11 - Veterans
- 01.06.2010 12 - Fathers and Sons
- 08.06.2010 13 - Bulletville

General
Complete name : C:\Justified.s01e06.HDRip.XviD.AC3.-SVM.avi
Format : AVI
Format/Info : Audio Video Interleave
File size : 848 MiB
Duration : 42mn 28s
Overall bit rate : 2 792 Kbps
Writing application : VirtualDubMod 1.5.10.2 (build 2540/release)
Writing library : VirtualDubMod build 2540/release
Video
ID : 0
Format : MPEG-4 Visual
Format profile : Advanced Simple@L5
Format settings, BVOP : Yes
Format settings, QPel : No
Format settings, GMC : No warppoints
Format settings, Matrix : Default (MPEG)
Muxing mode : Packed bitstream
Codec ID : XVID
Codec ID/Hint : XviD
Duration : 42mn 28s
Bit rate : 2 010 Kbps
Width : 720 pixels
Height : 400 pixels
Display aspect ratio : 16:9
Frame rate : 23.976 fps
Resolution : 8 bits
Colorimetry : 4:2:0
Scan type : Progressive
Bits/(Pixel*Frame) : 0.291
Stream size : 611 MiB (72%)
Writing library : XviD 1.2.1 (UTC 2008-12-04)
Audio #1
ID : 1
Format : AC-3
Format/Info : Audio Coding 3
Codec ID : 2000
Duration : 42mn 28s
Bit rate mode : Constant
Bit rate : 384 Kbps
Channel(s) : 6 channels
Channel positions : Front: L C R, Surround: L R, LFE
Sampling rate : 48.0 KHz
Stream size : 117 MiB (14%)
Alignment : Split accross interleaves
Interleave, duration : 42 ms (1.00 video frame)
Interleave, preload duration : 500 ms
Audio #2
ID : 2
Format : AC-3
Format/Info : Audio Coding 3
Codec ID : 2000
Duration : 42mn 28s
Bit rate mode : Constant
Bit rate : 384 Kbps
Channel(s) : 6 channels
Channel positions : Front: L C R, Surround: L R, LFE
Sampling rate : 48.0 KHz
Stream size : 117 MiB (14%)
Alignment : Split accross interleaves
Interleave, duration : 42 ms (1.00 video frame)
Interleave, preload duration : 500 ms
Внимание! Раздача ведётся путём добавления новых серий; при каждом добавлении создётся новый торрент. Чтобы начать докачку новой серии, пользователям необходимо сделать следующее:
(1) остановить скачивание,
(2) удалить старый торрент у себя из клиента (старые серии удалять не надо),
(3) скачать новый торрент и запустить его у себя в клиенте вместо старого, при этом указать клиенту путь в старую папку куда и должно происходить скачивание новых серий.
Ваш клиент при этом должен произвести хеширование (проверку) старой папки (если не производит сам - помогите ему сделать это), и будет докачивать только те серии которых у вас ещё нет. Старые серии при этом не удаляются, а продолжают раздаваться!
Eсли вы уже удалили старые серии, то предотвратить повторную закачку старых серий можно, отжав галочку в соответсвующих местах при запуске нового торрента.



Скачать Своя.правда.Justified.Сезон.1.Серии.6-9.(13).(Адам.Аркин.Джон.Эвнет.Майкл.Диннер).[2010.г.драма.HDRip].(Кубик.в.Кубе.|.Original).torrent без регистрации
Золото ЗОЛОТАЯ РАЗДАЧА! СКАЧАННОЕ НЕ ЗАСЧИТЫВАЕТСЯ! Золото
Дата: Зарегистрирован   [ Тип: внутренний ] Как тут cкачать?
MAGNET ссылка
MAGNET ссылка


Скачать .torrent

17 KB

Статус: проверено DHT
Скачан: торрент - 5690 раз, раздача полностью - 1 раз
Размер: 3,29 GB
Оценка:  5 (Голосов: 1)
Поблагодарили: 2
Поделиться ссылкой на эту раздачу с друзьями:
В контактеFacebookОдноклассникиTwitterLivejournalМой МирLiveinternet
 

 

leon030982

[] 

не прошло и пол года как кубики решили дальше перевести ag
 

leon030982

[] 

попроще размер закинь ab
 

Lexus

[] 

leon030982
Ага. Фокс уже давно перевёл 11. а кубики ещё на девятой висят
 

Lexus

[] 

Щас закину
http://goldenshara.com/viewtopic.php?t=40207 вот
 

leon030982

[] 

Lexus писал(а):

спасибо ab а сериала Власть закона не наблюдал ? а то засохли на 6-ой серии кубики ac
 

Lexus

[] 

leon030982
Щас поищу

=============
НЕТ всего в озвучке только 6 серий
 

leon030982

[] 

Lexus писал(а):

leon030982
Щас поищу

=============
НЕТ всего в озвучке только 6 серий
обидно ac сериал отличный
 
Показать сообщения:    


Вы не можете начинать темы
Вы не можете отвечать на сообщения
Вы не можете редактировать свои сообщения
Вы не можете удалять свои сообщения
Вы не можете голосовать в опросах
Вы не можете прикреплять файлы к сообщениям
Вы можете скачивать файлы