Loading...
Error

Скачать Правосудие / Justified (сезон 1, серии 1-13 из 13) (Джон Дал) [2010, криминальная драма, 720p BDRip] [Fox Crime] торрент без регистрации

 
Статистика раздачи
Размер:  22,21 GB   |    Скачан:  630 раз

Полного источника не было: 19 минут

 
Автор Сообщение

Lexus

[] 

Правосудие / Justified


Год выпуска: 2010
Страна: США
Жанр: криминальная драма
Продолжительность: 50 минут
Перевод: профессиональный многоголосый закадровый (Fox Crime)
Русские субтитры: есть
Субтитры: Вшитые (английские)
Режиссёр: Джон Дал
В ролях: Тимоти Олифант / Timothy Olyphant ("Крепкий орешек 4", "Рок-звезда", "Ловец снов"), Натали Зиа / Natalie Zea ("Грязные мокрые деньги", "Жеребец"), Ник Сирси / Nick Searcy ("Изгой", "Беглец"), Джекоб Питтс / Jacob Pitts, Джоэль Картер / Joelle Carter, Уолтон Гоггинс / Walton Goggins, Уильям Рэгсдэйл / William Ragsdale
Описание: История федерального маршала Рейлана Гивенса, современного законоохранника, все еще придерживающегося старомодных взглядов на правосудие. Из-за его строгого морального кодекса Гивенс быстро становится мишенью как для преступников, так и для коллег.
Релиз:
Озвучка: Fox Crime
Звук предоставил: Baggio
Подготовка видео: ЛП
Работа со звуком: Baggio

Качество: BDRip
Формат: MKV
Видео кодек: H.264
Аудио кодек: AC3
Видео: MPEG-4 AVC Video at 1280×720, 23.976 fps, 4023 kbps avg, 0.182 bit/pixel.
Аудио 1: 48 kHz, 2 ch, ~192 Kbps [color=gray](Fox Crime)

Аудио 2: 48 kHz, 6 ch, ~640 Kbps
General
Unique ID : 242028411233460592407254263041800360899 (0xB614F9F932820468B2E4DFCED40153C3)
Complete name : C:\Downloads\uTorrent\Justified S01 720p BDRip NewStudio.TV\Justified.s01e01.BDRip.720p.NewStudio.TV.mkv
Format : Matroska
File size : 1.76 GiB
Duration : 51mn 51s
Overall bit rate : 4 857 Kbps
Movie name : Release by uxTuaHgp
Encoded date : UTC 2011-05-03 21:34:51
Writing application : mkvmerge v3.3.0 ('Language') built on Mar 24 2010 14:59:24
Writing library : libebml v0.8.0 + libmatroska v0.9.0
Video
ID : 1
Format : AVC
Format/Info : Advanced Video Codec
Format profile : High@L4.1
Format settings, CABAC : Yes
Format settings, ReFrames : 9 frames
Codec ID : V_MPEG4/ISO/AVC
Duration : 51mn 51s
Bit rate : 4 023 Kbps
Width : 1 280 pixels
Height : 720 pixels
Display aspect ratio : 16:9
Frame rate : 23.976 fps
Color space : YUV
Chroma subsampling : 4:2:0
Bit depth : 8 bits
Scan type : Progressive
Bits/(Pixel*Frame) : 0.182
Stream size : 1.42 GiB (81%)
Writing library : x264 core 107 r1772 c9dad9e
Encoding settings : cabac=1 / ref=9 / deblock=1:-3:-3 / analyse=0x3:0x133 / me=umh / subme=10 / psy=1 / psy_rd=1.00:0.00 / mixed_ref=1 / me_range=24 / chroma_me=1 / trellis=2 / 8x8dct=1 / cqm=0 / deadzone=21,11 / fast_pskip=0 / chroma_qp_offset=-2 / threads=6 / sliced_threads=0 / nr=0 / decimate=0 / interlaced=0 / constrained_intra=0 / bframes=6 / b_pyramid=2 / b_adapt=2 / b_bias=0 / direct=3 / weightb=1 / open_gop=0 / weightp=2 / keyint=250 / keyint_min=23 / scenecut=40 / intra_refresh=0 / rc_lookahead=60 / rc=2pass / mbtree=1 / bitrate=4023 / ratetol=1.0 / qcomp=0.80 / qpmin=10 / qpmax=51 / qpstep=4 / cplxblur=20.0 / qblur=0.5 / vbv_maxrate=40000 / vbv_bufsize=30000 / ip_ratio=1.40 / aq=1:0.70 / nal_hrd=none
Audio #1
ID : 2
Format : AC-3
Format/Info : Audio Coding 3
Mode extension : CM (complete main)
Codec ID : A_AC3
Duration : 51mn 51s
Bit rate mode : Constant
Bit rate : 192 Kbps
Channel(s) : 2 channels
Channel positions : Front: L R
Sampling rate : 48.0 KHz
Bit depth : 16 bits
Compression mode : Lossy
Stream size : 71.2 MiB (4%)
Language : Russian
Audio #2
ID : 3
Format : AC-3
Format/Info : Audio Coding 3
Mode extension : CM (complete main)
Codec ID : A_AC3
Duration : 51mn 51s
Bit rate mode : Constant
Bit rate : 640 Kbps
Channel(s) : 6 channels
Channel positions : Front: L C R, Side: L R, LFE
Sampling rate : 48.0 KHz
Bit depth : 16 bits
Compression mode : Lossy
Stream size : 237 MiB (13%)
Language : English
Text
ID : 4
Format : UTF-8
Codec ID : S_TEXT/UTF8
Codec ID/Info : UTF-8 Plain Text
Language : English
Внимание! Раздача ведётся путём добавления новых серий; при каждом добавлении создётся новый торрент. Чтобы начать докачку новой серии, пользователям необходимо сделать следующее:
(1) остановить скачивание,
(2) удалить старый торрент у себя из клиента (старые серии удалять не надо),
(3) скачать новый торрент и запустить его у себя в клиенте вместо старого, при этом указать клиенту путь в старую папку куда и должно происходить скачивание новых серий.
Ваш клиент при этом должен произвести хеширование (проверку) старой папки (если не производит сам - помогите ему сделать это), и будет докачивать только те серии которых у вас ещё нет. Старые серии при этом не удаляются, а продолжают раздаваться!
Eсли вы уже удалили старые серии, то предотвратить повторную закачку старых серий можно, отжав галочку в соответсвующих местах при запуске нового торрента.



Скачать Правосудие.Justified.(сезон.1.серии.1-13.из.13).(Джон.Дал).[2010.криминальная.драма.720p.BDRip].[Fox.Crime].torrent без регистрации
Золото ЗОЛОТАЯ РАЗДАЧА! СКАЧАННОЕ НЕ ЗАСЧИТЫВАЕТСЯ! Золото
Дата: Зарегистрирован   [ Тип: внутренний ] Как тут cкачать?
MAGNET ссылка
MAGNET ссылка


Скачать .torrent

113 KB

Статус: проверено DHT
Скачан: торрент - 630 раз, раздача полностью - 20 раз
Размер: 22,21 GB
Оценка:  5 (Голосов: 2)
Поблагодарили: 4
Поделиться ссылкой на эту раздачу с друзьями:
В контактеFacebookОдноклассникиTwitterLivejournalМой МирLiveinternet
 

 

onealoner

[] 

Торрент-файл обновлен!!!
 
Показать сообщения:    


Вы не можете начинать темы
Вы не можете отвечать на сообщения
Вы не можете редактировать свои сообщения
Вы не можете удалять свои сообщения
Вы не можете голосовать в опросах
Вы не можете прикреплять файлы к сообщениям
Вы можете скачивать файлы