Loading...
Error

Скачать Университет / Greek / Сезон: 4 /8-10 Серии (Майкл Ланж, Ли Роуз, Патрик Р. Норрис) [2011, Мелодрама, Комедия, HDTVRip] [AnKOZ] торрент без регистрации

 
Статистика раздачи
Размер:  1012 MB   |    Скачан:  137 раз
Сидов:  1  [  0 KB/s  ]  
 
Автор Сообщение

Lexus

[] 

Университет / Greek
Год выпуска: 2011
Страна: США
Жанр: Мелодрама, Комедия
Продолжительность: 00:44:00
Перевод: любительский одноголосый закадровый (AnKOZ)
Русские субтитры: нет
Режиссёр: Майкл Ланж, Ли Роуз, Патрик Р. Норрис
В ролях: Clark Duke, Scott Michael Foster, Spencer Grammer, Paul James, Jake McDorman, Amber Stevens, Dilshad Vadsaria, Jacob Zachar
Описание: Университет — это лекции, аудитории, преподаватели, ректоры. Это контрольные, к которым заранее готовишься, и, возможно, небольшая вечеринка после. Не тут-то было! Это красивые девчонки, горячие парни, самые веселые братства, упоительные гулянки с ночи до утра. Вечные подколы новичков. Зубрежка или лихорадочная писанина шпор за ночь до сессии. Здесь есть все. Знакомьтесь, Расти, первокурсник. Ему только предстоит окунуться в этот новый для него мир, осилит ли он это все?

Качество: HDTVRip
Формат: AVI
Видео кодек: XviD
Аудио кодек: MP3
Видео: 624x352 (1.77:1) 23.976 fps XviD build 50 951 kbps avg 0.18 bit/pixel
Аудио: 44.100 kHz MPEG Layer 3 2 ch 128.00 kbps avg
Format : AVI
Format/Info : Audio Video Interleave
File size : 338 MiB
Duration : 43mn 23s
Overall bit rate : 1 089 Kbps
Writing application : VirtualDubMod 1.5.10.2 (build 2542/release)
Writing library : VirtualDubMod build 2542/release
Video
ID : 0
Format : MPEG-4 Visual
Format profile : Advanced Simple@L5
Format settings, BVOP : Yes
Format settings, QPel : No
Format settings, GMC : No warppoints
Format settings, Matrix : Default (H.263)
Codec ID : XVID
Codec ID/Hint : XviD
Duration : 43mn 23s
Bit rate : 951 Kbps
Width : 624 pixels
Height : 352 pixels
Display aspect ratio : 16:9
Frame rate : 23.976 fps
Resolution : 8 bits
Colorimetry : 4:2:0
Scan type : Progressive
Bits/(Pixel*Frame) : 0.181
Stream size : 295 MiB (87%)
Writing library : XviD 1.2.1 (UTC 2008-12-04)
Audio
ID : 1
Format : MPEG Audio
Format version : Version 1
Format profile : Layer 3
Mode : Joint stereo
Format_Settings_ModeExtension : MS Stereo
Codec ID : 55
Codec ID/Hint : MP3
Duration : 43mn 23s
Bit rate mode : Constant
Bit rate : 128 Kbps
Channel(s) : 2 channels
Sampling rate : 44.1 KHz
Stream size : 39.7 MiB (12%)
Alignment : Split accross interleaves
Interleave, duration : 42 ms (1.00 video frame)
Interleave, preload duration : 500 ms



Скачать Университет.Greek.Сезон.4.8-10.Серии.(Майкл.Ланж.Ли.Роуз.Патрик.Р.Норрис).[2011.Мелодрама.Комедия.HDTVRip].[AnKOZ].torrent без регистрации
Золото ЗОЛОТАЯ РАЗДАЧА! СКАЧАННОЕ НЕ ЗАСЧИТЫВАЕТСЯ! Золото
Дата: Зарегистрирован   [ Тип: внутренний ] Как тут cкачать?
MAGNET ссылка
MAGNET ссылка


Скачать .torrent

20 KB

Статус: проверено DHT
Скачан: торрент - 137 раз, раздача полностью - 13 раз
Размер: 1012 MB
Оценка:  - (Голосов: 0)
Поблагодарили: 0
Поделиться ссылкой на эту раздачу с друзьями:
В контактеFacebookОдноклассникиTwitterLivejournalМой МирLiveinternet
 

 
Показать сообщения:    


Вы не можете начинать темы
Вы не можете отвечать на сообщения
Вы не можете редактировать свои сообщения
Вы не можете удалять свои сообщения
Вы не можете голосовать в опросах
Вы не можете прикреплять файлы к сообщениям
Вы можете скачивать файлы