Loading...
Error

Скачать Сплетница / Gossip Girl / Сезон - 4 / Серии - 18-22 (Mark Piznarski) [2011, Молодежная драма,интрига,комедия, HDTVRip]( Sonyks.Project) торрент без регистрации

 
Статистика раздачи
Размер:  1,74 GB   |    Скачан:  213 раз
Сидов:  1  [  0 KB/s  ]  
 
Автор Сообщение

Lexus

[] 

Сплетница / Gossip Girl (2011)
Год выпуска: 2011
Страна: США
Жанр: Молодежная драма,интрига,комедия
Продолжительность: ~45:00:00
Перевод:
любительский одноголосый закадровый 18 серия
любительский двухголосый закадровый 19 серия
любительский многоголосый закадровый 20-22 серия

Русские субтитры: нет
Субтитры: Отсутствуют
Режиссёр: Mark Piznarski
В ролях: Блейк Лайвли / Blake Lively, Лейтон Мистер / Leighton Meester, Пенн Бэджли / Penn Badgley, Чейс Кроуфорд / Chace Crawford, Тейлор Момсен / Taylor Momsen, Эд Уэстуик / Ed Westwick, Меттью Сеттл / Matthew Settle, Келли Разерфорд / Kelly Rutherford, Кристен Бэлл / Kristen Bell
Описание: ЧЕТВЕРТЫЙ СЕЗОН НАЧИНАЕТСЯ В ГОРОДЕ ОГНЕЙ! Блэр проводит замечательное лето в Париже, даже не подозревая, что в ее бывшего возлюбленного стреляли. Но сколько бы Блэр не пыталась отвлечь себя от боли причиненной Чаком, его таинственное появление в Париже в компании красивой женщины заставит вновь взглянуть на произошедшее. Тем временем опять одинокая Серена наслаждается парижским летом любви в компании двух парней Блэр и Баленсиага, пытаясь уйти от неизбежного решения, в отношении ее давних возлюбленных Нейта и Дэна. На Верхнем Ист Сайде Нейт встречает загадочную девушку по имени Джульет, которая помогает ему понять, что лето сексуальных завоеваний с помощью маленькой черной книжечки Чака, было всего лишь попыткой уйти от неразрешенных чувств к Серене. Драма с малышом Джорджины и Дэном продолжается. А дом ван дер Вудсен гудит от подготовки к предстоящему модному событию "Fashion’s Night Out".

Доп. информация:
Перевод : Notabenoid/Suomalainen
Редактура субтитров : Sonyks13,Suomalainen

Озвучка : Sonyks13, Скетчер, Elliot Grosvenor
Релиз

Качество: HDTVRip
Формат: AVI
Видео кодек: XviD
Аудио кодек: MP3
Видео: 628x352 (1.77:1), 23.976 fps, XviD MPEG-4 ~996 kbps avg, 0.19 bit/pixel
Аудио: 48 kHz, MPEG Layer 3, 2 ch, ~192.00 kbps avg
General
Complete name : E:\Мои сериалы\Gossip Girl S04\Gossip Girl s04e18.Sonyks.Project.Rus.avi
Format : AVI
Format/Info : Audio Video Interleave
File size : 361 MiB
Duration : 42mn 14s
Overall bit rate : 1 195 Kbps
Video
ID : 0
Format : MPEG-4 Visual
Format profile : Advanced Simple@L5
Format settings, BVOP : Yes
Format settings, QPel : No
Format settings, GMC : No warppoints
Format settings, Matrix : Default (H.263)
Muxing mode : Packed bitstream
Codec ID : XVID
Codec ID/Hint : XviD
Duration : 42mn 8s
Bit rate : 997 Kbps
Width : 624 pixels
Height : 352 pixels
Display aspect ratio : 16:9
Frame rate : 23.976 fps
Color space : YUV
Chroma subsampling : 4:2:0
Bit depth : 8 bits
Scan type : Progressive
Bits/(Pixel*Frame) : 0.189
Stream size : 300 MiB (83%)
Writing library : XviD 1.2.1 (UTC 2008-12-04)
Audio
ID : 1
Format : MPEG Audio
Format version : Version 1
Format profile : Layer 3
Codec ID : 55
Codec ID/Hint : MP3
Duration : 42mn 14s
Bit rate mode : Constant
Bit rate : 192 Kbps
Channel(s) : 2 channels
Sampling rate : 48.0 KHz
Stream size : 57.9 MiB (16%)
Alignment : Aligned on interleaves
Interleave, duration : 42 ms (1.00 video frame)
Внимание! Раздача ведётся путём добавления новых серий; при каждом добавлении создётся новый торрент. Чтобы начать докачку новой серии, вам необходимо сделать следующее:
1. Остановить скачивание.
2. Удалить старый торрент у себя из клиента (старые серии удалять не надо).
3. Скачать новый торрент и запустить его у себя в клиенте вместо старого, при этом указать клиенту путь в старую папку куда и должно происходить скачивание новых серий.
Ваш клиент при этом должен произвести хеширование (проверку) старой папки (если не производит сам - помогите ему сделать это), и будет докачивать только те серии которых у вас ещё нет. Старые серии при этом не удаляются, а продолжают раздаваться!
Eсли вы уже удалили старые серии, то предотвратить повторную закачку старых серий можно, отжав галочку в соответсвующих местах при запуске нового торрента.



Скачать Сплетница.Gossip.Girl.Сезон.-.4.Серии.-.18-22.(Mark.Piznarski).[2011.Молодежная.драма.интрига.комедия.HDTVRip](.Sonyks.Project).torrent без регистрации
Золото ЗОЛОТАЯ РАЗДАЧА! СКАЧАННОЕ НЕ ЗАСЧИТЫВАЕТСЯ! Золото
Дата: Зарегистрирован   [ Тип: внутренний ] Как тут cкачать?
MAGNET ссылка
MAGNET ссылка


Скачать .torrent

18 KB

Статус: проверено DHT
Скачан: торрент - 213 раз, раздача полностью - 74 раз
Размер: 1,74 GB
Оценка:  - (Голосов: 0)
Поблагодарили: 0
Поделиться ссылкой на эту раздачу с друзьями:
В контактеFacebookОдноклассникиTwitterLivejournalМой МирLiveinternet
 

 
Показать сообщения:    


Вы не можете начинать темы
Вы не можете отвечать на сообщения
Вы не можете редактировать свои сообщения
Вы не можете удалять свои сообщения
Вы не можете голосовать в опросах
Вы не можете прикреплять файлы к сообщениям
Вы можете скачивать файлы