Loading...
Error

Скачать Смертельный бред / Mortal Kombat: Legacy / Сезон: 1 / Серии: 1-3 (10) (Кевин Танчароэн) [2011, боевик, триллер, криминал, WEBRip 720p] Гоблин по версии The Mike Rec. торрент без регистрации

 
Статистика раздачи
Размер:  419 MB   |    Скачан:  164 раза
Сидов:  1  [  0 KB/s  ]  
 
Автор Сообщение

Lexus

[] 

Смертельная битва: Наследие / Mortal Kombat: Legacy

...Смертельный бред...

Год выпуска: 2011
Страна: США
Жанр: Интернет-сериал, короткометражка, боевик, триллер, криминал
Продолжительность: ~12 мин.
Перевод: авторский одноголосый закадровый (The Mike Rec. "Goblin")
Русские субтитры: нет
Субтитры: отсутствуют
Режиссёр:
Кевин Танчароэн
В ролях:
Майкл Джей Уайт, Даррен Шахлави, Йен Энтони Дэйл, Серж Уд, Беатрис Айлдж, Шэйн Уоррен Джонс, Мэтт Маллинз, Кеван Охтци, Райан Роббинс, Джери Райан, Питер Шинкода, Сэм Чиа, Джолин Трэн, Алекс Паунович, Тамо Пеникетт, Трэйси Спиридакос, Колин Корригэн и др.
Описание:

Гоблинская версия озвучки по версии The Mike Rec.
В первой и второй серии вместо Джакса, Кано, Сони, Страйкра мы увидим Чака Норриса, Ксюшу Собчак, Диму Билана и т.д.
Сценарий переделан на 99,9%

Внимание, в раздаче присутствует мат!

Серии:

1) Бесплодие (часть 1)
2) Бесплодие (часть 2)
3) 3-й Срок Путина
Качество: WEBRip
Формат: MP4
Видео кодек: H.264
Аудио кодек: AAC
Видео: H.264, 1280x720, 24.000 fps, 1 621 Kbps, 0.073 bit/pixel
Аудио: AAC, 44.1 KHz, 2 channels, 151 Kbps


Сэмпл|Kinopoisk||IMDb
Season 1

12.04.2011 Episode 1 - Вышел - Джекс, Соня и Кано (часть 1)
19.04.2011 Episode 2 - Вышел - Джекс, Соня и Кано(часть 2)
26.04.2011 Episode 3 - Вышел - Джонни Кейдж
03.05.2011 Episode 4 - Вышел - Китана и Милина (часть 1)
10.05.2011 Episode 5 - Вышел - Китана и Милина (часть 2)
17.05.2011 Episode 6 - Вышел - Рэйден
24.05.2011 Episode 7 - Вышел - Скорпион и Саб-Зиро (часть 1)
31.05.2011 Episode 8 - Вышел - Скорпион и Саб-Зиро (часть 2)
07.06.2011 Episode 9 - 7 дней
14.06.2011 Episode 10 - 14 дней

General
Complete name : /Users/Mike/Downloads/Смертельный бред - бесплодие/Mortal_Kombat_Legacy.Ep1.720p.Goblin.mp4
Format : MPEG-4
Format profile : Base Media
Codec ID : isom
File size : 158 MiB
Duration : 12mn 24s
Overall bit rate : 1 777 Kbps
Encoded date : UTC 2011-05-25 16:16:04
Tagged date : UTC 2011-05-25 16:16:04
Writing application : Lavf51.12.1
Video
ID : 1
Format : MPEG-4 Visual
Format profile : Simple@L1
Format settings, BVOP : No
Format settings, QPel : No
Format settings, GMC : No warppoints
Format settings, Matrix : Default (H.263)
Codec ID : 20
Duration : 12mn 24s
Bit rate mode : Variable
Bit rate : 1 621 Kbps
Width : 1 280 pixels
Height : 720 pixels
Display aspect ratio : 16:9
Frame rate mode : Constant
Frame rate : 24.000 fps
Color space : YUV
Chroma subsampling : 4:2:0
Bit depth : 8 bits
Scan type : Progressive
Compression mode : Lossy
Bits/(Pixel*Frame) : 0.073
Stream size : 144 MiB (91%)
Writing library : Lavc51.40.4
Encoded date : UTC 2011-05-25 16:16:04
Tagged date : UTC 2011-05-25 16:16:04
Audio
ID : 2
Format : AAC
Format/Info : Advanced Audio Codec
Format profile : LC
Codec ID : 40
Duration : 12mn 23s
Bit rate mode : Variable
Bit rate : 151 Kbps
Channel(s) : 2 channels
Channel positions : Front: L R
Sampling rate : 44.1 KHz
Compression mode : Lossy
Stream size : 13.4 MiB (9%)
Encoded date : UTC 2011-05-25 16:16:04
Tagged date : UTC 2011-05-25 16:16:04
При каждом добавлении создётся новый торрент. Чтобы начать докачку новой серии, пользователям необходимо сделать следующее:
(1) остановить скачивание,
(2) удалить старый торрент у себя из клиента (старые серии удалять не надо),
(3) скачать новый торрент и запустить его у себя в клиенте вместо старого, при этом указать клиенту путь в старую папку куда и должно происходить скачивание новых серий.
Ваш клиент при этом должен произвести хеширование (проверку) старой папки (если не производит сам - помогите ему сделать это), и будет докачивать только те серии которых у вас ещё нет. Старые серии при этом не удаляются, а продолжают раздаваться!
Eсли вы уже удалили старые серии, то предотвратить повторную закачку старых серий можно, отжав галочку в соответсвующих местах при запуске нового торрента. По возможности, желательно не удалять старые серии как можно дольше чтобы релизёр не столько продолжал раздавать старые серии, а смог сконцентрироваться на новых.



Скачать Смертельный.бред.Mortal.Kombat.Legacy.Сезон.1.Серии.1-3.(10).(Кевин.Танчароэн).[2011.боевик.триллер.криминал.WEBRip.720p].Гоблин.по.версии.The.Mike.Rec..torrent без регистрации
Золото ЗОЛОТАЯ РАЗДАЧА! СКАЧАННОЕ НЕ ЗАСЧИТЫВАЕТСЯ! Золото
Дата: Зарегистрирован   [ Тип: внутренний ] Как тут cкачать?
MAGNET ссылка
MAGNET ссылка


Скачать .torrent

34 KB

Статус: проверено DHT
Скачан: торрент - 164 раз, раздача полностью - 25 раз
Размер: 419 MB
Оценка:  - (Голосов: 0)
Поблагодарили: 1
Поделиться ссылкой на эту раздачу с друзьями:
В контактеFacebookОдноклассникиTwitterLivejournalМой МирLiveinternet
 

 
Показать сообщения:    


Вы не можете начинать темы
Вы не можете отвечать на сообщения
Вы не можете редактировать свои сообщения
Вы не можете удалять свои сообщения
Вы не можете голосовать в опросах
Вы не можете прикреплять файлы к сообщениям
Вы можете скачивать файлы