Loading...
Error

Скачать Тайны Смолвиля / Smallville / Сезон: 10 / Серии: 21-22 (из 22) (Джо Шустер, Джерри Сигел) [2011, фантастика, драма, HDTVRip 1080p] rus sub торрент без регистрации

 
Статистика раздачи
Размер:  7,51 GB   |    Скачан:  326 раз
Сидов:  1  [  0 KB/s  ]  
 
Автор Сообщение

Lexus

[] 

Тайны Смолвиля / Smallville (Финал)
Год выпуска: 2011
Страна: США | Warner Bros. Television
Жанр: фантастика, драма
Продолжительность: ~00:42х2
Озвучка: оригинал
Русские субтитры: есть, by Swan
Режиссёр: Джо Шустер, Джерри Сигел
В ролях: Том Уэллинг, Эллисон Мэк, Кристин Кройк, Майкл Розенбаум, Эрика Дюранс, Джон Гловер, Аннетт О`Тул, Джон Шнайдер, Джастин Хартли, Сэм Джонс III
Описание: Здесь начинается начало конца. Вступая в свой десятый и заключительный сезон, эта современная интерпретация легендарного происхождения героя продолжает смешивать реализм, действие, романтику и юмор в то время, как Кларк Кент (Том Уэллинг) стремится к своему предназначению.
Кларк вышел из своего самого темного часа, чтобы найти путь к своей судьбе, заслоненный призраками прошлого - тени настоящего пытаются заманить Кларка назад в темноту на каждом шагу. Несмотря на непреодолимые разногласия, достаточно ли силен Кларк, чтобы выбрать свет и занять свое законное место самого могущественного защитника Земли?

Качество: HDTVRip
Формат: MKV
Видео кодек: H.264
Аудио кодек: AC3
Видео: 1920x1080 (16:9), 23.976 fps, ~13,0 Мбит/сек, 0.261 bit/pixel
Аудио: English, 48 kHz, AC3, 6 каналов, ~384.00 kbps avg

Код:

Уникальный идентификатор         : 249913295288462383281011325431647795504 (0xBC038CC5917FFFD5AD336A2DA66F7930)
Полное имя                       : C:\Users\killer9188\Desktop\smallville-f\Smallville.S10E21.1080i.h264.High.Level.Finale.mkv
Формат                           : Matroska
Размер файла                     : 7,51 Гбайт
Продолжительность                : 1 ч. 23 м.
Общий поток                      : 12,9 Мбит/сек
Дата кодирования                 : UTC 2011-05-15 15:37:58
Программа кодирования            : mkvmerge v4.7.0 ('Just Like You Imagined') сборка от Apr 21 2011 01:13:14
Библиотека кодирования           : libebml v1.2.0 + libmatroska v1.1.0
Видео
Идентификатор                    : 1
Формат                           : AVC
Формат/Информация                : Advanced Video Codec
Профиль формата                  : High@L4.0
Параметр CABAC формата           : Да
Параметр ReFrames формата        : 3 кадра
Режим смешивания                 : Header stripping
Идентификатор кодека             : V_MPEG4/ISO/AVC
Продолжительность                : 1 ч. 23 м.
Вид битрейта                     : Постоянный
Битрейт                          : 12,3 Мбит/сек
Номинальный битрейт              : 13,0 Мбит/сек / 13,0 Мбит/сек
Ширина                           : 1920 пикс.
Высота                           : 1080 пикс.
Соотношение сторон               : 16:9
Частота кадров                   : 23,976 кадр/сек
Стандарт вещания                 : NTSC
Цветовое пространство            : YUV
Подвыборка цветности             : 4:2:0
Битовая глубина                  : 8 бит
Тип развёртки                    : Прогрессивная
Бит/(Пиксели*Кадры)              : 0.246
Размер потока                    : 7,13 Гбайт (95%)
Библиотека кодирования           : x264 core 112
Настройки программы              : cabac=1 / ref=3 / deblock=1:0:0 / analyse=0x3:0x113 / me=hex / subme=7 / psy=1 / psy_rd=1.00:0.00 / mixed_ref=1 / me_range=16 / chroma_me=1 / trellis=1 / 8x8dct=1 / cqm=2 / deadzone=21,11 / fast_pskip=1 / chroma_qp_offset=-2 / threads=6 / sliced_threads=0 / slices=1 / nr=0 / decimate=1 / interlaced=0 / constrained_intra=0 / bframes=3 / b_pyramid=0 / b_adapt=1 / b_bias=0 / direct=1 / weightb=1 / open_gop=0 / weightp=2 / keyint=250 / keyint_min=23 / scenecut=40 / intra_refresh=0 / rc_lookahead=40 / rc=cbr / mbtree=1 / bitrate=12970 / ratetol=1.0 / qcomp=0.60 / qpmin=3 / qpmax=51 / qpstep=4 / vbv_maxrate=12970 / vbv_bufsize=12959 / nal_hrd=cbr / frame-packing=0 / ip_ratio=1.40 / aq=1:1.00
Основные цвета                   : BT.709-5, BT.1361, IEC 61966-2-4, SMPTE RP177
Характеристики трансфера         : BT.709-5, BT.1361
Коэффициенты матрицы             : BT.709-5, BT.1361, IEC 61966-2-4 709, SMPTE RP177
Аудио
Идентификатор                    : 2
Формат                           : AC-3
Формат/Информация                : Audio Coding 3
Расширение режима                : CM (complete main)
Режим смешивания                 : Header stripping
Идентификатор кодека             : A_AC3
Продолжительность                : 1 ч. 23 м.
Вид битрейта                     : Постоянный
Битрейт                          : 384 Кбит/сек
Каналы                           : 6 каналов
Расположение каналов             : Front: L C R, Side: L R, LFE
Частота                          : 48,0 КГц
Битовая глубина                  : 16 бит
Метод сжатия                     : С потерями
Размер потока                    : 229 Мбайт (3%)



Скачать Тайны.Смолвиля.Smallville.Сезон.10.Серии.21-22.(из.22).(Джо.Шустер.Джерри.Сигел).[2011.фантастика.драма.HDTVRip.1080p].rus.sub.torrent без регистрации
Золото ЗОЛОТАЯ РАЗДАЧА! СКАЧАННОЕ НЕ ЗАСЧИТЫВАЕТСЯ! Золото
Дата: Зарегистрирован   [ Тип: внутренний ] Как тут cкачать?
MAGNET ссылка
MAGNET ссылка


Скачать .torrent

38 KB

Статус: проверено DHT
Скачан: торрент - 326 раз, раздача полностью - 5 раз
Размер: 7,51 GB
Оценка:  5 (Голосов: 1)
Поблагодарили: 2
Поделиться ссылкой на эту раздачу с друзьями:
В контактеFacebookОдноклассникиTwitterLivejournalМой МирLiveinternet
 

 
Показать сообщения:    


Вы не можете начинать темы
Вы не можете отвечать на сообщения
Вы не можете редактировать свои сообщения
Вы не можете удалять свои сообщения
Вы не можете голосовать в опросах
Вы не можете прикреплять файлы к сообщениям
Вы можете скачивать файлы