Loading...
Error

Скачать Невероятная история / Unnatural History / Сезон: 1 / Серии: 13 (Микаэль Саломон) [2010, Приключения, мистика, драма, HDTVRip] торрент без регистрации

 
Статистика раздачи
Размер:  349 MB   |    Скачан:  126 раз

Полного источника не было: 29 минут

 
Автор Сообщение

Lexus

[] 

Невероятная история / Unnatural History (2010) (Микаэль Соломон)
Год выпуска: 2010
Страна: США
Жанр: Приключения, мистика, драма
Продолжительность: ~44:00:00
Перевод: любительский одноголосый закадровый
Русские субтитры: нет
Субтитры: Отсутствуют
Режиссёр: Микаэль Саломон
В ролях: Кевин Шмидт, Мартин Донован, Джордан Джаварис, Италиа Риччи
Описание: Сериал, в лучших приключенческих традициях искателей сокровищ, рассказывает о Генри Гриффине, подростке с исключительными навыками, приобретенными за годы путешествий по всему миру с родителями-антропологами. Когда родители решили, что их сыну пришла пора вести обычную жизнь подростка средней школы, они отправили его в Вашингтон жить к дяде Брайануи кузену Джасперу. Но это не рядовая школа – она расположена на территории Национального музея. Генри, Джаспер и их подруга Мэгги вскоре узнают, что музей полон тайн, и для их разгадки Генри понадобятся все его знания.

Доп. информация:
Релиз


Качество: HDTVRip
Формат: AVI
Видео кодек: XviD
Аудио кодек: MP3
Видео: 624x352 (1.77:1), 23.976 fps, XviD MPEG-4 ~954 kbps avg, 0.18 bit/pixel
Аудио: 44.100 kHz, MPEG Layer 3, 2 ch, ~128.00 kbps avg
General
Complete name : Unnatural History\Unnatural History s01se13.HDTV.SonyksProject.Rus.avi
Format : AVI
Format/Info : Audio Video Interleave
File size : 349 MiB
Duration : 44mn 45s
Overall bit rate : 1 090 Kbps
Video
ID : 0
Format : MPEG-4 Visual
Format profile : Advanced Simple@L5
Format settings, BVOP : Yes
Format settings, QPel : No
Format settings, GMC : No warppoints
Format settings, Matrix : Default (H.263)
Muxing mode : Packed bitstream
Codec ID : XVID
Codec ID/Hint : XviD
Duration : 44mn 39s
Bit rate : 955 Kbps
Width : 624 pixels
Height : 352 pixels
Display aspect ratio : 16:9
Frame rate : 23.976 fps
Color space : YUV
Chroma subsampling : 4:2:0
Bit depth : 8 bits
Scan type : Progressive
Bits/(Pixel*Frame) : 0.181
Stream size : 305 MiB (87%)
Writing library : XviD 1.2.1 (UTC 2008-12-04)
Audio
ID : 1
Format : MPEG Audio
Format version : Version 1
Format profile : Layer 3
Codec ID : 55
Codec ID/Hint : MP3
Duration : 44mn 45s
Bit rate mode : Constant
Bit rate : 128 Kbps
Channel(s) : 2 channels
Sampling rate : 44.1 KHz
Stream size : 40.9 MiB (12%)
Alignment : Aligned on interleaves
Interleave, duration : 42 ms (1.00 video frame)



Скачать Невероятная.история.Unnatural.History.Сезон.1.Серии.13.(Микаэль.Саломон).[2010.Приключения.мистика.драма.HDTVRip].torrent без регистрации
Золото ЗОЛОТАЯ РАЗДАЧА! СКАЧАННОЕ НЕ ЗАСЧИТЫВАЕТСЯ! Золото
Дата: Зарегистрирован   [ Тип: внутренний ] Как тут cкачать?
MAGNET ссылка
MAGNET ссылка


Скачать .torrent

14 KB

Статус: проверено DHT
Скачан: торрент - 126 раз, раздача полностью - 1 раз
Размер: 349 MB
Оценка:  - (Голосов: 0)
Поблагодарили: 0
Поделиться ссылкой на эту раздачу с друзьями:
В контактеFacebookОдноклассникиTwitterLivejournalМой МирLiveinternet
 

 
Показать сообщения:    


Вы не можете начинать темы
Вы не можете отвечать на сообщения
Вы не можете редактировать свои сообщения
Вы не можете удалять свои сообщения
Вы не можете голосовать в опросах
Вы не можете прикреплять файлы к сообщениям
Вы можете скачивать файлы