Loading...
Error

Скачать Грань / Fringe (Сезон 2) (Алекс Грейвз) [2008, Фантастика, триллер, HDRip] (Дубляж ТВ3) торрент без регистрации

 
Статистика раздачи
Размер:  12,48 GB   |    Скачан:  476 раз
Сидов:  1  [  0 KB/s  ]  
 
Автор Сообщение

Lexus

[] 

За Гранью / Грань / Fringe
Год выпуска: 2008
Страна: США, Канада
Жанр: Фантастика, триллер
Продолжительность: 00:45:00
Перевод: Профессиональный (полное дублирование) [ТВ3]
Русские субтитры: нет
Субтитры: отсутствуют
Режиссёр: Алекс Грейвз
В ролях: Джошуа Джексон, Анна Торв, Джон Нобль, Шарлотта Рэмплинг, Марк Вэлли, Ланс Риддик
Описание: Агент ФБР Оливия Данэм расследует гибель всех пассажиров авиарейса следующего из Гамбурга в Бостон. В ходе расследования ранен её напарник Джон Скотт. В отчаянии Оливия понимает, что ей может помочь доктор Уолтер Бишоп, который находится в психиатрической лечебнице. Поговорить с ним можно только при участии его сына Питера. Оливия продолжает расследование и знакомится с Ниной Шарп, влиятельным руководителем. Вместе Оливия, Питер и доктор Бишоп начнут раскрывать тайны случившегося с рейсом 627 и сделают первый шаг на пути к осознанию истины, которая находится за гранью нашего понимания.

Качество: HDRip
Формат: AVI
Видео кодек: XviD
Аудио кодек: AC3
Видео: 720x400 (1.80:1), 23.976 fps, XviD build 50 ~1569 kbps avg, 0.23 bit/pixel
Аудио: 48 kHz, AC3 Dolby Digital, 2/0 (L,R) ch, ~192.00 kbps avg
General
Complete name : \Fringe.2x01.HDRip.Rus.avi
Format : AVI
Format/Info : Audio Video Interleave
File size : 556 MiB
Duration : 43mn 54s
Overall bit rate : 1 771 Kbps
Writing application : VirtualDubModRus 1.5.10.1 (build 2439/release)
Writing library : VirtualDubMod build 2439/release
Video
ID : 0
Format : MPEG-4 Visual
Format profile : Advanced Simple@L5
Format settings, BVOP : Yes
Format settings, QPel : No
Format settings, GMC : No warppoints
Format settings, Matrix : Default (H.263)
Codec ID : XVID
Codec ID/Hint : XviD
Duration : 43mn 54s
Bit rate : 1 570 Kbps
Width : 720 pixels
Height : 400 pixels
Display aspect ratio : 16:9
Frame rate : 23.976 fps
Resolution : 8 bits
Colorimetry : 4:2:0
Scan type : Progressive
Bits/(Pixel*Frame) : 0.227
Stream size : 493 MiB (89%)
Writing library : XviD 1.2.1 (UTC 2008-12-04)
Audio
ID : 1
Format : AC-3
Format/Info : Audio Coding 3
Codec ID : 2000
Duration : 43mn 54s
Bit rate mode : Constant
Bit rate : 192 Kbps
Channel(s) : 2 channels
Channel positions : L R
Sampling rate : 48.0 KHz
Stream size : 60.3 MiB (11%)
Alignment : Split accross interleaves
Interleave, duration : 42 ms (1.00 video frame)
Interleave, preload duration : 500 ms
Раздача ведётся путём добавления новых серий; при каждом добавлении создаётся новый торрент. Чтобы начать докачку новой серии, пользователям необходимо сделать следующее:
(1) остановить скачивание,
(2) удалить старый торрент у себя из клиента (старые серии удалять не надо),
(3) скачать новый торрент и запустить его у себя в клиенте вместо старого, при этом указать клиенту путь в старую папку куда и должно происходить скачивание новых серий.
Ваш клиент при этом должен произвести хеширование (проверку) старой папки (если не производит сам - помогите ему сделать это), и будет докачивать только те серии которых у вас ещё нет. Старые серии при этом не удаляются, а продолжают раздаваться!
Eсли вы уже удалили старые серии, то предотвратить повторную закачку старых серий можно, отжав галочку в соответствующих местах при запуске нового торрента. По возможности, желательно не удалять старые серии как можно дольше чтобы релизёр не столько продолжал раздавать старые серии, а смог сконцентрироваться на новых.



Скачать Грань.Fringe.(Сезон.2).(Алекс.Грейвз).[2008.Фантастика.триллер.HDRip].(Дубляж.ТВ3).torrent без регистрации
Золото ЗОЛОТАЯ РАЗДАЧА! СКАЧАННОЕ НЕ ЗАСЧИТЫВАЕТСЯ! Золото
Дата: Зарегистрирован   [ Тип: внутренний ] Как тут cкачать?
MAGNET ссылка
MAGNET ссылка


Скачать .torrent

64 KB

Статус: проверено DHT
Скачан: торрент - 476 раз, раздача полностью - 542 раз
Размер: 12,48 GB
Оценка:  5 (Голосов: 3)
Поблагодарили: 4
Поделиться ссылкой на эту раздачу с друзьями:
В контактеFacebookОдноклассникиTwitterLivejournalМой МирLiveinternet
 

 
Показать сообщения:    


Вы не можете начинать темы
Вы не можете отвечать на сообщения
Вы не можете редактировать свои сообщения
Вы не можете удалять свои сообщения
Вы не можете голосовать в опросах
Вы не можете прикреплять файлы к сообщениям
Вы можете скачивать файлы