Loading...
Error

Скачать Август Раш / August Rush (Кирстен Шеридан) [2007, драма, мелодрама, музыка, HDRip] [Лицензия] торрент без регистрации

 
Статистика раздачи
Размер:  737 MB   |    Скачан:  150 раз
Сидов:  1  [  0 KB/s  ]  
 
Автор Сообщение

МихаНЕзатор

[] 

Информация о фильме
Название: Август Раш
Оригинальное название: August Rush
Год выхода: 2007
Жанр: драма, мелодрама, музыка
Режиссер: Кирстен Шеридан / Kirsten Sheridan
В ролях: Фредди Хаймор, Кери Расселл, Джонатан Рис-Майерс, Робин Уильямс, Уильям Сэдлер, Терренс Дэшон Ховард

О фильме:
Молодой харизматичный ирландский гитарист и американская виолончелистка из престижной семьи полюбили друг друга. После волшебной встречи в Нью-Йорке, обстоятельства оказываются сильнее их и они вынуждены расстаться. Родившийся ребёнок, Август Раш, по столь же несчастливому стечению обстоятельств оказывается в одном из нью-Йоркских приютов.

Двенадцать лет спустя Август Раш, необыкновенно талантливый для своего возраста музыкант, отчаянно стремится найти своих родителей.

Единственной возможностью для этого он считает свою музыку юный музыкант верит, что если он будет играть его родители смогут узнать и найти его по музыке. Теперь, опекаемый загадочным незнакомцем, он играет на улицах Нью-Йорка и пытается найти родителей, которых он никогда не видел, с помощью своего исключительного музыкального дара.


Страна: США
Студия: Odyssey Entertainment, Warner Bros. Pictures
Продолжительность: 01:53:37
Перевод: Профессиональный (многоголосый, закадровый) Лицензия

Файл
Кодек: XviD / MP3
Качество: HDRip
Видео: XviD, 656x272 (2.40:1), 23.976 fps, 769 Kbps (0.180 bit/pixel)
Звук: MP3, 48.0 KHz, 2 ch, 128 Kbps, CBR
General
Complete name : E:August.Rush_[Rutor.org].avi
Format : AVI
Format/Info : Audio Video Interleave
File size : 737 MiB
Duration : 1h 53mn
Overall bit rate : 906 Kbps
Movie name : August Rush 2007
Director : Petey [torrents.ru]
Genre : Drama
Writing application : VirtualDubMod 1.5.10.2 (build 2540/release)
Writing library : VirtualDubMod build 2540/release
Original source form/Name : Movie

Video
ID : 0
Format : MPEG-4 Visual
Format profile : Advanced Simple@L5
Format settings, BVOP : 1
Format settings, QPel : No
Format settings, GMC : No warppoints
Format settings, Matrix : Default (MPEG)
Codec ID : XVID
Codec ID/Hint : XviD
Duration : 1h 53mn
Bit rate : 769 Kbps
Width : 656 pixels
Height : 272 pixels
Display aspect ratio : 2.40:1
Frame rate : 23.976 fps
Color space : YUV
Chroma subsampling : 4:2:0
Bit depth : 8 bits
Scan type : Progressive
Compression mode : Lossy
Bits/(Pixel*Frame) : 0.180
Stream size : 625 MiB (85%)
Writing library : XviD 1.2.1 (UTC 2008-12-04)

Audio
ID : 1
Format : MPEG Audio
Format version : Version 1
Format profile : Layer 3
Codec ID : 55
Codec ID/Hint : MP3
Duration : 1h 53mn
Bit rate mode : Constant
Bit rate : 128 Kbps
Channel(s) : 2 channels
Sampling rate : 48.0 KHz
Compression mode : Lossy
Stream size : 104 MiB (14%)
Alignment : Aligned on interleaves
Interleave, duration : 42 ms (1.00 video frame)
Interleave, preload duration : 504 ms
Writing library : LAME3.97
Encoding settings : -m s -V 4 -q 2 -lowpass 17 -b 128



Скачать Август.Раш.August.Rush.(Кирстен.Шеридан).[2007.драма.мелодрама.музыка.HDRip].[Лицензия].torrent без регистрации
Золото ЗОЛОТАЯ РАЗДАЧА! СКАЧАННОЕ НЕ ЗАСЧИТЫВАЕТСЯ! Золото
Дата: Зарегистрирован   [ Тип: внутренний ] Как тут cкачать?
MAGNET ссылка
MAGNET ссылка


Скачать .torrent

15 KB

Статус: проверено DHT
Скачан: торрент - 150 раз, раздача полностью - 82 раз
Размер: 737 MB
Оценка:  5 (Голосов: 3)
Поблагодарили: 4
Поделиться ссылкой на эту раздачу с друзьями:
В контактеFacebookОдноклассникиTwitterLivejournalМой МирLiveinternet
 

 
Показать сообщения:    


Вы не можете начинать темы
Вы не можете отвечать на сообщения
Вы не можете редактировать свои сообщения
Вы не можете удалять свои сообщения
Вы не можете голосовать в опросах
Вы не можете прикреплять файлы к сообщениям
Вы можете скачивать файлы