Loading...
Error

Скачать Генералы песчаных карьеров / The Sandpit Generals (Холл Бартлетт) [1971, драма, DVDRip] [ExKinoRay] торрент без регистрации

 
Статистика раздачи
Размер:  1,56 GB   |    Скачан:  211 раз
Сидов:  1  [  0 KB/s  ]  
 
Автор Сообщение

МихаНЕзатор

[] 

Информация о фильме
Название: Генералы песчаных карьеров
Оригинальное название: The Sandpit Generals
Год выхода: 1971
Жанр: Драма
Режиссер: Холл Бартлетт
В ролях: Алехандро Рей, Джон Рубинштейн, Кент Лейн, Тиша Стерлинг, Доривал Гейми, Адемар Да Сильва, Алойсио Де Оливеира, Марк Де Врайс, Бач Патрик, Джимми Фрейзер, Фредди Гедеон, Уильям Хобсон, Гильерме Ламунье, Креуза Миллет

О фильме:
В народе их называют «генералы песчаных карьеров&raquo. Эти парни готовы сражаться за кусок хлеба, и не позавидовать тому, кто окажется у них на пути эти мальчишки опасны и жестки. Однако и у них есть сердца, есть желание любить и быть любимыми. Поэтому, когда беспризорники знакомятся с девушкой Дорой и ее братом, которых родственники выгнали на улицу, «капитаны песка» дают новым сиротам кров, еду и защиту. Добрая, отзывчивая и бесстрашная Дора быстро вливается в мужской коллектив, заменяя одиноким мальчишкам и сестру, и мать. Вместе они совершают немало дерзких ограблений, не подозревая, что дни их бандитской «коммуны» сочтены


Страна: США
Студия: American International Pictures
Продолжительность: 01:30:00
Перевод: Дублированный (Мосфильм)

Файл
Кодек: AVI, XviD
Качество: DVDRip
Видео: XviD, 2090 Кбит/с, 720x480
Звук: Русский (AC3, 6 ch, 384 Кбит/с)
Субтитры: нет
Дата релиза: 15.06.2011
D:NET ФильмыGenerali.peshanih.karierov.1971.XviD.DVDRip.ExKinoRay.avi
General
Complete name : D:NET ФильмыGenerali.peshanih.karierov.1971.XviD.DVDRip.ExKinoRay.avi
Format : AVI
Format/Info : Audio Video Interleave
File size : 1.56 GiB
Duration : 1h 30mn
Overall bit rate : 2 483 Kbps
Writing application : VirtualDubMod 1.5.10.2 (build 2540/release)
Writing library : VirtualDubMod build 2540/release
Video
Format : MPEG-4 Visual
Format profile : Streaming Video@L1
Format settings, BVOP : Yes
Format settings, QPel : No
Format settings, GMC : No warppoints
Format settings, Matrix : Default
Muxing mode : Packed bitstream
Codec ID : XVID
Codec ID/Hint : XviD
Duration : 1h 30mn
Bit rate : 2 090 Kbps
Width : 720 pixels
Height : 480 pixels
Display aspect ratio : 1.500
Frame rate : 25.000 fps
Standard : NTSC
Resolution : 24 bits
Colorimetry : 4:2:0
Scan type : Progressive
Bits/(Pixel*Frame) : 0.242
Stream size : 1.31 GiB (84%)
Writing library : XviD 50
Audio
Format : AC-3
Format/Info : Audio Coding 3
Codec ID : 2000
Duration : 1h 30mn
Bit rate mode : Constant
Bit rate : 384 Kbps
Channel(s) : 6 channels
Channel positions : Front: L C R, Surround: L R, LFE
Sampling rate : 48.0 KHz
Stream size : 247 MiB (15%)
Alignment : Split accross interleaves
Interleave, duration : 40 ms (1.00 video frame)
Interleave, preload duration : 500 ms



Релиз от:






Скачать Генералы.песчаных.карьеров.The.Sandpit.Generals.(Холл.Бартлетт).[1971.драма.DVDRip].[ExKinoRay].torrent без регистрации
Золото ЗОЛОТАЯ РАЗДАЧА! СКАЧАННОЕ НЕ ЗАСЧИТЫВАЕТСЯ! Золото
Дата: Зарегистрирован   [ Тип: внутренний ] Как тут cкачать?
MAGNET ссылка
MAGNET ссылка


Скачать .torrent

16 KB

Статус: проверено DHT
Скачан: торрент - 211 раз, раздача полностью - 225 раз
Размер: 1,56 GB
Оценка:  5 (Голосов: 2)
Поблагодарили: 4
Поделиться ссылкой на эту раздачу с друзьями:
В контактеFacebookОдноклассникиTwitterLivejournalМой МирLiveinternet
 

 
Показать сообщения:    


Вы не можете начинать темы
Вы не можете отвечать на сообщения
Вы не можете редактировать свои сообщения
Вы не можете удалять свои сообщения
Вы не можете голосовать в опросах
Вы не можете прикреплять файлы к сообщениям
Вы можете скачивать файлы