Loading...
Error

Скачать Убежище / Sanctuary / Сезон: 3 / Серии: 11 - 18 (20) (Мартин Вуд) [2010, Фантастика, HDTVRip] [Creative Sound] торрент без регистрации

 
Статистика раздачи
Размер:  2,87 GB   |    Скачан:  259 раз

Полного источника не было: 4 года 9 месяцев

 
Автор Сообщение

Lexus

[] 

Убежище / Sanctuary
Год выпуска: 2010
Страна: США, Канада
Жанр: Фантастика
Продолжительность: 00:43:15
Перевод: любительский многоголосый закадровый.
Русские субтитры: нет
Режиссёр: Мартин Вуд
В ролях: Аманда Таппинг, Робин Данн, Кристофер Хейердал, Леа Кейрнс, Миранда Фригон, Лаура Меннелл, Райан Роббинс, Питер ДеЛуис.
Описание: Описание: Убийца из настоящего убивает проституток из прошлого… Кто он? Тот легендарный Джек Потрошитель или кто-то ещё? Откуда появляются чудовища и монстры и что вообще происходит? Это и предстоит узнать главным героям сериала…

Сэмпл: http://onemove.ru/47842/
Качество: HDTVRip
Формат: AVI
Видео кодек: XviD
Аудио кодек: MP3
Видео: XviD build 50 640x352 (1.82:1) 23.976 fps 975 kbps avg 0.18 bit/pixel
Аудио: MPEG Layer 3 48 kHz 2 ch 128.00 kbps avg
Релиз:
Внимание! Раздача ведётся путём добавления новых серий; при каждом добавлении создётся новый торрент. Чтобы начать докачку новой серии, пользователям необходимо сделать следующее: (1) остановить скачивание, (2) удалить старый торрент у себя из клиента (старые серии удалять не надо), (3) скачать новый торрент и запустить его у себя в клиенте вместо старого, при этом указать клиенту путь в старую папку куда и должно происходить скачивание новых серий.
Ваш клиент при этом должен произвести хеширование (проверку) старой папки (если не производит сам - помогите ему сделать это), и будет докачивать только те серии которых у вас ещё нет. Старые серии при этом не удаляются, а продолжают раздаваться!
Eсли вы уже удалили старые серии, то предотвратить повторную закачку старых серий можно, отжав галочку в соответсвующих местах при запуске нового торрента.
General
Complete name : C:\Users\stas\Downloads\Sanctuary 3 Cretive sound\sanctuary.s03e11.avi
Format : AVI
Format/Info : Audio Video Interleave
File size : 361 MiB
Duration : 45mn 19s
Overall bit rate : 1 113 Kbps
Writing application : VirtualDubMod 1.5.10.2 (build 2542/release)
Writing library : VirtualDubMod build 2542/release
Video
ID : 0
Format : MPEG-4 Visual
Format profile : Advanced Simple@L5
Format settings, BVOP : Yes
Format settings, QPel : No
Format settings, GMC : No warppoints
Format settings, Matrix : Default (H.263)
Codec ID : XVID
Codec ID/Hint : XviD
Duration : 45mn 19s
Bit rate : 975 Kbps
Width : 640 pixels
Height : 352 pixels
Display aspect ratio : 16:9
Frame rate : 23.976 fps
Resolution : 8 bits
Colorimetry : 4:2:0
Scan type : Progressive
Bits/(Pixel*Frame) : 0.181
Stream size : 316 MiB (88%)
Writing library : XviD 1.2.1 (UTC 2008-12-04)
Audio
ID : 1
Format : MPEG Audio
Format version : Version 1
Format profile : Layer 3
Mode : Joint stereo
Format_Settings_ModeExtension : MS Stereo
Codec ID : 55
Codec ID/Hint : MP3
Duration : 45mn 19s
Bit rate mode : Constant
Bit rate : 128 Kbps
Channel(s) : 2 channels
Sampling rate : 48.0 KHz
Stream size : 41.5 MiB (12%)
Alignment : Aligned on interleaves
Interleave, duration : 42 ms (1.00 video frame)
Interleave, preload duration : 504 ms



Скачать Убежище.Sanctuary.Сезон.3.Серии.11.-.18.(20).(Мартин.Вуд).[2010.Фантастика.HDTVRip].[Creative.Sound].torrent без регистрации
Золото ЗОЛОТАЯ РАЗДАЧА! СКАЧАННОЕ НЕ ЗАСЧИТЫВАЕТСЯ! Золото
Дата: Зарегистрирован   [ Тип: внутренний ] Как тут cкачать?
MAGNET ссылка
MAGNET ссылка


Скачать .torrent

15 KB

Статус: ? недооформлено
Скачан: торрент - 259 раз, раздача полностью - 23 раз
Размер: 2,87 GB
Оценка:  - (Голосов: 0)
Поблагодарили: 1
Поделиться ссылкой на эту раздачу с друзьями:
В контактеFacebookОдноклассникиTwitterLivejournalМой МирLiveinternet
 

 
Показать сообщения:    


Вы не можете начинать темы
Вы не можете отвечать на сообщения
Вы не можете редактировать свои сообщения
Вы не можете удалять свои сообщения
Вы не можете голосовать в опросах
Вы не можете прикреплять файлы к сообщениям
Вы можете скачивать файлы