Loading...
Error

Скачать Сверхъестественное / Supernatural / Сезон: 6 / Серия: 21-22 (22) (Роберт Сингер) [2011, ужасы, триллер, драма, детекти, HDTVRip] [StreamFilm] торрент без регистрации

 
Статистика раздачи
Размер:  846 MB   |    Скачан:  227 раз
Сидов:  1  [  0 KB/s  ]  
 
Автор Сообщение

Lexus

[] 

Сверхъестественное / Supernatural
Год выпуска: 2011
Страна: США
Жанр: ужасы, триллер, драма, детекти
Продолжительность: 00:41:00
Перевод: Любительский (Многоголосый, закадровый) (StreamFilm)
Русские субтитры: нет
Субтитры: отсутствуют
Режиссёр: Роберт Сингер
В ролях: Джаред Падалекки, Дженсен Эклз, Миша Коллинз, Джим Бивер и др.
Описание: Сверхъестественное вернулось в лице 6-ого сезона, но оно уже кажется не тем сериалом, который мы помним по прошлым сезонам. Хотя, возвращение людей из мертвых, страшных существ, устраивающих хаос в нашем мире, нападения повсюду и Дина, вынужденного выбирать между счастьем и охотой. Но если призадуматься, это все тоже шоу, которое, мы так любим.

Озвучка:
Сэмпл: http://multi-up.com/496734
Качество: HDTVRip
Формат: AVI
Видео кодек: XviD
Видео: 624x352 23.98fps 1.030 Kbps 0.196 B/P
Аудио: MPEG Audio Layer 3 48000Hz stereo 2ch 128kbps
General
Complete name : E:\СЕРИАЛЫ\Сверхи\Supernatural s06 e21.avi
Format : AVI
Format/Info : Audio Video Interleave
File size : 420 MiB
Duration : 41mn 57s
Overall bit rate : 1 399 Kbps
Writing application : VirtualDubMod 1.5.10.2 (build 2542/release)
Writing library : VirtualDubMod build 2542/release
Video
ID : 0
Format : MPEG-4 Visual
Format profile : AdvancedSimple@L5
Format settings, BVOP : Yes
Format settings, QPel : No
Format settings, GMC : No warppoints
Format settings, Matrix : Default (H.263)
Codec ID : XVID
Codec ID/Hint : XviD
Duration : 41mn 57s
Bit rate : 1 000 Kbps
Width : 624 pixels
Height : 352 pixels
Display aspect ratio : 16:9
Frame rate : 23.976 fps
Resolution : 24 bits
Colorimetry : 4:2:0
Scan type : Progressive
Bits/(Pixel*Frame) : 0.190
Stream size : 300 MiB (72%)
Writing library : XviD 1.2.1 (UTC 2008-12-04)
Audio #1
ID : 1
Format : MPEG Audio
Format version : Version 1
Format profile : Layer 3
Codec ID : 55
Codec ID/Hint : MP3
Duration : 41mn 57s
Bit rate mode : Constant
Bit rate : 256 Kbps
Channel(s) : 2 channels
Sampling rate : 44.1 KHz
Resolution : 16 bits
Stream size : 76.8 MiB (18%)
Alignment : Split accross interleaves
Interleave, duration : 42 ms (1.00 video frame)
Interleave, preload duration : 500 ms
Audio #2
ID : 2
Format : MPEG Audio
Format version : Version 1
Format profile : Layer 3
Codec ID : 55
Codec ID/Hint : MP3
Duration : 41mn 57s
Bit rate mode : Variable
Bit rate : 128 Kbps
Channel(s) : 2 channels
Sampling rate : 48.0 KHz
Resolution : 16 bits
Stream size : 38.4 MiB (9%)
Alignment : Split accross interleaves
Interleave, duration : 42 ms (1.00 video frame)
Interleave, preload duration : 500 ms



Скачать Сверхъестественное.Supernatural.Сезон.6.Серия.21-22.(22).(Роберт.Сингер).[2011.ужасы.триллер.драма.детекти.HDTVRip].[StreamFilm].torrent без регистрации
Золото ЗОЛОТАЯ РАЗДАЧА! СКАЧАННОЕ НЕ ЗАСЧИТЫВАЕТСЯ! Золото
Дата: Зарегистрирован   [ Тип: внутренний ] Как тут cкачать?
MAGNET ссылка
MAGNET ссылка


Скачать .torrent

17 KB

Статус: проверено DHT
Скачан: торрент - 227 раз, раздача полностью - 28 раз
Размер: 846 MB
Оценка:  5 (Голосов: 1)
Поблагодарили: 2
Поделиться ссылкой на эту раздачу с друзьями:
В контактеFacebookОдноклассникиTwitterLivejournalМой МирLiveinternet
 

 
Показать сообщения:    


Вы не можете начинать темы
Вы не можете отвечать на сообщения
Вы не можете редактировать свои сообщения
Вы не можете удалять свои сообщения
Вы не можете голосовать в опросах
Вы не можете прикреплять файлы к сообщениям
Вы можете скачивать файлы