Loading...
Error

Скачать Лучшая охрана / Breaking In (Сезон 1, Серии 1-7 (7)) (Сет Гордон) [2011 г., комедия, WEB-DLRip] DVO (Кубик в Кубе) торрент без регистрации

 
Статистика раздачи
Размер:  1,43 GB   |    Скачан:  171 раз
Сидов:  1  [  0 KB/s  ]  
 
Автор Сообщение

МихаНЕзатор

[] 



Взлом / Breaking In


Год выпуска: 2011
Страна: США
Жанр: комедия
Продолжительность: ~ 22 минуты
Перевод: Профессиональный (двухголосый, закадровый) - Кубик в Кубе
Субтитры: Русские (форсированные)
Режиссёр: Сет Гордон
В ролях: Одетт Юстман, Кристиан Слэйтер, Брэт Харрисон, Альфонсо Маколи, Майкл Розенбаум
Описание: BREAKING IN это не совсем обычная получасовая комедия про высоко-качественую техническую фирму по обеспечению безопасности, которая принимает экстремальные и очень часто сомнительные меры для того что бы их услуги продавались успешнее. Созданая Адамом Голдбергом и Сэтом Гордоном, команда компьютерных талантливых чудаков гениев, работает на мастера манипуляции.
Название фирмы - Contra Security (Контра Секьюрити), корпоративный ответ Америки на известный сериал "Команда А". Фирму возглавляет Оз (Кристиан Слэйтер), человек тайны и мастер манипуляций. Команда фирмы включает в себя: Мэлани(Одетт Юстман), которая специализируется на вскрывании замков, безопасном взломе и разбивании сердец; а также Кэша (Альфонсо МакОли), приколист который специализируется на стратегии, логистике и профессиональным офисным шалостям, которые мог-бы придумать только полный безумец.
У Оза новобранец, вырваный прямо из коледжа, милый и очаровательный Кэмерон Прайс ( Брэт Харрисон). К сожалению для Кэмирона, взлом лучших систем безопасности нааааамного легче, чем найти общий язык с его сотрудниками. Между подавляющей сексуальностью Мэлани и дедовщиной Кэша, у Кэмерона больше чем пару препятствий для того что бы стать полноправным членом лучшей команды по безопасности.
Качество: WEB-DLRip
Формат: AVI
Видео кодек: XviD
Аудио кодек: MP3
Видео: 624x352 (16:9), 23.976 fps, ~1100 kbps, ~0.210 bit/pixel
Аудио Rus: 48 kHz, 2 ch, ~128 kbps |Кубик в Кубе|
Аудио Eng: 48 kHz, 2 ch, ~128 kbps |Original|

Озвучка: Кубик в Кубе
Работа со звуком: TranceWeLoveYou
Рип: LegendKiev
/ Сэмпл / ImDB / Кинопоиск
Pilot
Tis Better to Have Loved and Flossed
The Need for Speed
White on White on White
Take the Movie and Run
Breaking Out
21.0 Jump Street
[b]Общее
Полное имя : E:\Breaking.In.s01.WEB-DLRip.Rus.Eng.Kybik.v.Kybe\Breaking.In.s01e01.WEB-DLRip.Rus.Eng.Kybik.v.Kybe.avi
Формат : AVI
Формат/Информация : Audio Video Interleave
Размер файла : 209 Мбайт
Продолжительность : 21 м.
Общий поток : 1385 Кбит/сек
Программа кодирования : VirtualDubMod 1.5.10.2 (build 2540/release)
Библиотека кодирования : VirtualDubMod build 2540/release
Видео
Идентификатор : 0
Формат : MPEG-4 Visual
Профиль формата : Advanced Simple@L5
Параметр BVOP формата : 1
Параметр QPel формата : Нет
Параметр GMC формата : Без точки перехода
Параметр матрицы формата : Выборочная
Идентификатор кодека : XVID
Идентификатор кодека/Подсказка : XviD
Продолжительность : 21 м.
Битрейт : 1115 Кбит/сек
Ширина : 624 пикс.
Высота : 352 пикс.
Соотношение сторон : 16:9
Частота кадров : 23,976 кадр/сек
Цветовое пространство : YUV
Подвыборка цветности : 4:2:0
Битовая глубина : 8 бит
Тип развёртки : Прогрессивная
Метод сжатия : С потерями
Бит/(Пиксели*Кадры) : 0.212
Размер потока : 168 Мбайт (81%)
Библиотека кодирования : XviD 1.2.1 (UTC 2008-12-04)
Аудио #1
Идентификатор : 1
Формат : MPEG Audio
Версия формата : Version 1
Профиль формата : Layer 3
Режим : Joint stereo
Расширение режима : MS Stereo
Идентификатор кодека : 55
Идентификатор кодека/Подсказка : MP3
Продолжительность : 21 м.
Вид битрейта : Постоянный
Битрейт : 128 Кбит/сек
Каналы : 2 канала
Частота : 48,0 КГц
Метод сжатия : С потерями
Размер потока : 19,3 Мбайт (9%)
Выравнивание : Соединение по промежуткам
Продолжительность промежутка : 42 мс. (1,00 видеокадр)
Время предзагрузки промежутка : 504 ms
Библиотека кодирования : LAME3.99r
Настройки программы : -m j -V 4 -q 2 -lowpass 17 -b 128
Аудио #2
Идентификатор : 2
Формат : MPEG Audio
Версия формата : Version 1
Профиль формата : Layer 3
Режим : Joint stereo
Расширение режима : MS Stereo
Идентификатор кодека : 55
Идентификатор кодека/Подсказка : MP3
Продолжительность : 21 м.
Вид битрейта : Постоянный
Битрейт : 128 Кбит/сек
Каналы : 2 канала
Частота : 48,0 КГц
Метод сжатия : С потерями
Размер потока : 19,3 Мбайт (9%)
Выравнивание : Соединение по промежуткам
Продолжительность промежутка : 42 мс. (1,00 видеокадр)
Время предзагрузки промежутка : 504 ms
Библиотека кодирования : LAME3.99r
Настройки программы : -m j -V 4 -q 2 -lowpass 17 -b 128



Скачать Лучшая.охрана.Breaking.In.(Сезон.1.Серии.1-7.(7)).(Сет.Гордон).[2011.г.комедия.WEB-DLRip].DVO.(Кубик.в.Кубе).torrent без регистрации
Золото ЗОЛОТАЯ РАЗДАЧА! СКАЧАННОЕ НЕ ЗАСЧИТЫВАЕТСЯ! Золото
Дата: Зарегистрирован   [ Тип: внутренний ] Как тут cкачать?
MAGNET ссылка
MAGNET ссылка


Скачать .torrent

16 KB

Статус: проверено DHT
Скачан: торрент - 171 раз, раздача полностью - 3 раз
Размер: 1,43 GB
Оценка:  4,5 (Голосов: 2)
Поблагодарили: 4
Поделиться ссылкой на эту раздачу с друзьями:
В контактеFacebookОдноклассникиTwitterLivejournalМой МирLiveinternet
 

 
Показать сообщения:    


Вы не можете начинать темы
Вы не можете отвечать на сообщения
Вы не можете редактировать свои сообщения
Вы не можете удалять свои сообщения
Вы не можете голосовать в опросах
Вы не можете прикреплять файлы к сообщениям
Вы можете скачивать файлы