Loading...
Error

Скачать Сошедшие с небес / Рухнувшие небеса / Falling Skies (сезон 05) (Грег Биман ) [2015, боевик, фантастика, триллер, WEB-DL] [1080p] [MVO (LostFilm)]+[original]+[Sub Eng] торрент без регистрации

 
Статистика раздачи
Размер:  17,24 GB   |    Скачан:  372 раза
Сидов:  1  [  0 KB/s  ]  
 
Автор Сообщение

МихаНЕзатор

[] 

Информация о фильме
Название: Сошедшие с небес / Рухнувшие небеса
Оригинальное название: Falling Skies
Год выхода: 2015
Жанр: боевик, фантастика, триллер
Режиссер: Грег Биман, Серджо Мимика-Геззан, Адам Кэйн

В ролях: Ноа Уайли, Мун Бладгуд, Дрю Рой, Коннор Джессап, Максим Найт, Сейшелл Гэбриел, Уилл Пэттон, Сара Картер, Колин Каннингэм, Питер Шинкода

О фильме: Инопланетное вторжение стало для землян полной неожиданностью. Несколько выживших объединяются, чтобы ежедневно бороться за выживание и попытаться наладить связь с такими же как они «счастливчиками» из других городов, и дать отпор захватчикам из космоса.



Страна: США, Канада
Студия: DreamWorks Television, Invasion Productions
Продолжительность: ~ 00:42:00 серия
Перевод: Профессиональный (многоголосый закадровый) LostFilm

Файл
Кодек: AVC/H.264
Качество: WEB-DL 1080p
Видео: 1920x1080(1.778), 23.976 fps, ~ 5000 kbps
Звук:
Аудио rus: AC-3, 48 KHz, 6 ch, 384 kbps | LostFilm
Аудио eng: AC-3, 48 KHz, 6 ch, 384 kbps | original
Субтитры: английские

Релиз от: Skyns61

АНОНСЫ ПОПУЛЯРНЫХ РАЗДАЧ


Торрент обновлён, добавлена 10-я серия!

01. Найди в себе воина / Find Your Warrior
02. Испытание голодом /Hunger Pains
03. Инкубатор /Hatchlings
04. Поуп пускается во все тяжкие /Pope Breaks Bad
05. Второстепенные /Non-Essential Personnel
06. Отсрочка /Respite
07. У всех свои причины /Everybody Has Their Reasons
08. Шталаг 14-го Вирджинского /Stalag 14th Virginia
09. Воссоединение /Reunion
10. Возрождение /Reborn

Монтаж, работа со звуком LostFilm: Skyns61
Выделенный Voiceover от «LostFilm» был наложен на центр оригинального AC3.

Общее
Уникальный идентификатор : 230355667612009105540195769812128621320 (0xAD4CE3479A6B5468BDE2FB40CD3BE308)
Полное имя : G:FilmsFalling.Skies.S05.1080p.LostFilmFalling.Skies.S05E01.1080p.WEB-DL.LostFilm.DD5.1.mkv
Формат : Matroska
Версия формата : Version 4 / Version 2
Размер файла : 1,67 Гбайт
Продолжительность : 41 м.
Общий поток : 5828 Кбит/сек
Дата кодирования : UTC 2015-07-02 17:26:35
Программа кодирования : mkvmerge v8.1.0 ('Psychedelic Postcard') 64bit
Библиотека кодирования : libebml v1.3.1 + libmatroska v1.4.2
DURATION : 00:41:05.696000000
NUMBER_OF_FRAMES : 77053
NUMBER_OF_BYTES : 118353408
_STATISTICS_WRITING_APP : mkvmerge v8.1.0 ('Psychedelic Postcard') 64bit
_STATISTICS_WRITING_DATE_UTC : 2015-07-02 17:26:35
_STATISTICS_TAGS : BPS DURATION NUMBER_OF_FRAMES NUMBER_OF_BYTES

Видео
Идентификатор : 1
Формат : AVC
Формат/Информация : Advanced Video Codec
Профиль формата : High@L4.0
Параметр CABAC формата : Да
Параметр ReFrames формата : 4 кадра
Идентификатор кодека : V_MPEG4/ISO/AVC
Продолжительность : 41 м.
Битрейт : 4944 Кбит/сек
Ширина : 1920 пикселей
Высота : 1080 пикселей
Соотношение сторон : 16:9
Режим частоты кадров : Постоянный
Частота кадров : 23,976 кадра/сек
Цветовое пространство : YUV
Субдискретизация насыщенности : 4:2:0
Битовая глубина : 8 бит
Тип развёртки : Прогрессивная
Бит/(Пиксели*Кадры) : 0.099
Размер потока : 1,42 Гбайт (85%)
Язык : English
Default : Да
Forced : Нет
Основные цвета : BT.709
Характеристики трансфера : BT.709
Коэффициенты матрицы : BT.709
colour_range : Limited

Аудио #1
Идентификатор : 2
Формат : AC-3
Формат/Информация : Audio Coding 3
Расширение режима : CM (complete main)
Параметр Endianness формата : Big
Идентификатор кодека : A_AC3
Продолжительность : 41 м.
Вид битрейта : Постоянный
Битрейт : 384 Кбит/сек
Каналы : 6 каналов
Расположение каналов : Front: L C R, Side: L R, LFE
Частота : 48,0 КГц
Битовая глубина : 16 бит
Метод сжатия : С потерями
Размер потока : 113 Мбайт (7%)
Заголовок : LostFilm 5.1
Язык : Russian
Default : Да
Forced : Нет

Аудио #2
Идентификатор : 3
Формат : AC-3
Формат/Информация : Audio Coding 3
Расширение режима : CM (complete main)
Параметр Endianness формата : Big
Идентификатор кодека : A_AC3
Продолжительность : 41 м.
Вид битрейта : Постоянный
Битрейт : 384 Кбит/сек
Каналы : 6 каналов
Расположение каналов : Front: L C R, Side: L R, LFE
Частота : 48,0 КГц
Битовая глубина : 16 бит
Метод сжатия : С потерями
Размер потока : 113 Мбайт (7%)
Заголовок : original 5.1
Язык : English
Default : Нет
Forced : Нет

Текст
Идентификатор : 4
Формат : UTF-8
Идентификатор кодека : S_TEXT/UTF8
Идентификатор кодека/Информация : UTF-8 Plain Text
Заголовок : CC
Язык : English
Default : Нет
Forced : Нет

Когда раздача ведётся путём добавления новых серий, при каждом добавлении создётся новый торрент. Чтобы начать докачку новой серии, пользователям необходимо сделать следующее:
(1) остановить скачивание,
(2) удалить старый торрент у себя из клиента (старые серии удалять не надо),
(3) скачать новый торрент и запустить его у себя в клиенте вместо старого, при этом указать клиенту путь в старую папку, куда и должно происходить скачивание новых серий.
Ваш клиент при этом должен произвести хеширование (проверку) старой папки (если не производит сам - помогите ему сделать это), и будет докачивать только те серии, которых у вас ещё нет. Старые серии при этом не удаляются, а продолжают раздаваться!
Eсли вы уже удалили старые серии, то предотвратить повторную закачку старых серий можно, отжав галочку в соответсвующих местах при запуске нового торрента. По возможности, желательно не удалять старые серии как можно дольше, чтобы релизёр не столько продолжал раздавать старые серии, а смог сконцентрироваться на новых.



Скачать Сошедшие.с.небес.Рухнувшие.небеса.Falling.Skies.(сезон.05).(Грег.Биман.).[2015.боевик.фантастика.триллер.WEB-DL].[1080p].[MVO.(LostFilm)]+[original]+[Sub.Eng].torrent без регистрации
Золото ЗОЛОТАЯ РАЗДАЧА! СКАЧАННОЕ НЕ ЗАСЧИТЫВАЕТСЯ! Золото
Дата: Зарегистрирован   [ Тип: внутренний ] Как тут cкачать?
MAGNET ссылка
MAGNET ссылка


Скачать .torrent

44 KB

Статус: проверено DHT
Скачан: торрент - 372 раз, раздача полностью - 7 раз
Размер: 17,24 GB
Оценка:  5 (Голосов: 2)
Поблагодарили: 3
Поделиться ссылкой на эту раздачу с друзьями:
В контактеFacebookОдноклассникиTwitterLivejournalМой МирLiveinternet
 

 
Показать сообщения:    


Вы не можете начинать темы
Вы не можете отвечать на сообщения
Вы не можете редактировать свои сообщения
Вы не можете удалять свои сообщения
Вы не можете голосовать в опросах
Вы не можете прикреплять файлы к сообщениям
Вы можете скачивать файлы