Loading...
Error

Скачать Правосудие / Justified (сезон 1, серия 1-13 и 13) (Джон Дал) [2010 г., криминальная драма, HDRip] [Fox Crime] торрент без регистрации

 
Статистика раздачи
Размер:  7,03 GB   |    Скачан:  676 раз
Сидов:  1  [  0 KB/s  ]  
 
Автор Сообщение

Lexus

[] 

Правосудие / Justified
Год выпуска: 2010
Страна: США

Жанр: криминальная драма
Продолжительность: ~45 мин
Перевод: Профессиональный многоголосый закадровый(Fox Crime)
Субтитры: нет
Режиссер: Джон Дал
В ролях:
Тимоти Олифант / Timothy Olyphant ("Крепкий орешек 4", "Рок-звезда", "Ловец снов"), Натали Зиа / Natalie Zea ("Грязные мокрые деньги", "Жеребец"), Ник Сирси / Nick Searcy ("Изгой", "Беглец"), Джекоб Питтс / Jacob Pitts, Джоэль Картер / Joelle Carter, Уолтон Гоггинс / Walton Goggins, Уильям Рэгсдэйл / William Ragsdale
Описание:
История федерального маршала Рейлана Гивенса, современного законоохранника, все еще придерживающегося старомодных взглядов на правосудие. Из-за его строгого морального кодекса Гивенс быстро становится мишенью как для преступников, так и для коллег.

Качество: HDRip
Формат: AVI

Видео кодек: XviD
Аудио кодек: MP3
Видео: 720x400 (1.80:1), 23.976 fps, XviD build 50 ~1342 kbps avg, 0.19 bit/pixel
Аудио Rus: 48 kHz, MPEG Layer 3, 2 ch, ~128.00 kbps avg
Аудио Eng: 48 kHz, MPEG Layer 3, 2 ch, ~128.00 kbps avg
Релиз:
Звук предоставил:
Baggio
Подготовка видео: Koss
Работа со звуком: Baggio


General
Complete name : H:\Фтп 3\Work\Justified Season 1 Fox Crime\Justified.s01e01.BDRip.NewStudio.TV.avi
Format : AVI
Format/Info : Audio Video Interleave
File size : 600 MiB
Duration : 51mn 51s
Overall bit rate : 1 618 Kbps
Writing application : VirtualDubMod 1.5.10.2 (build 2540/release)
Writing library : VirtualDubMod build 2540/release
Video

ID : 0
Format : MPEG-4 Visual
Format profile : Advanced Simple@L5
Format settings, BVOP : Yes
Format settings, QPel : No
Format settings, GMC : No warppoints
Format settings, Matrix : Default (MPEG)
Codec ID : XVID
Codec ID/Hint : XviD
Duration : 51mn 51s
Bit rate : 1 344 Kbps
Width : 720 pixels
Height : 400 pixels
Display aspect ratio : 16:9
Frame rate : 23.976 fps
Color space : YUV
Chroma subsampling : 4:2:0
Bit depth : 8 bits
Scan type : Progressive
Bits/(Pixel*Frame) : 0.195
Stream size : 498 MiB (83%)
Writing library : XviD 1.2.1 (UTC 2008-12-04)
Audio #1
ID : 1
Format : MPEG Audio
Format version : Version 1
Format profile : Layer 3
Mode : Joint stereo
Mode extension : MS Stereo
Codec ID : 55
Codec ID/Hint : MP3
Duration : 51mn 51s
Bit rate mode : Constant
Bit rate : 128 Kbps
Channel(s) : 2 channels
Sampling rate : 48.0 KHz
Stream size : 47.5 MiB (8%)
Alignment : Aligned on interleaves
Interleave, duration : 42 ms (1.00 video frame)
Interleave, preload duration : 504 ms
Audio #2
ID : 2
Format : MPEG Audio
Format version : Version 1
Format profile : Layer 3
Mode : Joint stereo
Mode extension : MS Stereo
Codec ID : 55
Codec ID/Hint : MP3
Duration : 51mn 51s
Bit rate mode : Variable
Bit rate : 128 Kbps
Channel(s) : 2 channels
Sampling rate : 48.0 KHz
Stream size : 47.7 MiB (8%)
Alignment : Aligned on interleaves
Interleave, duration : 24 ms (0.58 video frame)
Interleave, preload duration : 143 ms
Writing library : LAME3.90.
Encoding settings : -m j -V 4 -q 2 -lowpass 17.6 --abr 128
Fire in the Hole
Riverbrook
Fixer
Long in the Tooth
The Lord of War and Thunder
The Collection
Blind Spot
Blowback
Hatless
The Hammer
Veterans
Fathers and Sons
Bulletville
Внимание! Раздача ведётся путём добавления новых серий; при каждом добавлении создётся новый торрент. Чтобы начать докачку новой серии, пользователям необходимо сделать следующее: (1) остановить скачивание, (2) удалить старый торрент у себя из клиента (старые серии удалять не надо), (3) скачать новый торрент и запустить его у себя в клиенте вместо старого, при этом указать клиенту путь в старую папку куда и должно происходить скачивание новых серий.
Ваш клиент при этом должен произвести хеширование (проверку) старой папки (если не производит сам - помогите ему сделать это), и будет докачивать только те серии которых у вас ещё нет. Старые серии при этом не удаляются, а продолжают раздаваться!
Eсли вы уже удалили старые серии, то предотвратить повторную закачку старых серий можно, отжав галочку в соответсвующих местах при запуске нового торрента.



Скачать Правосудие.Justified.(сезон.1.серия.1-13.и.13).(Джон.Дал).[2010.г.криминальная.драма.HDRip].[Fox.Crime].torrent без регистрации
Золото ЗОЛОТАЯ РАЗДАЧА! СКАЧАННОЕ НЕ ЗАСЧИТЫВАЕТСЯ! Золото
Дата: Зарегистрирован   [ Тип: внутренний ] Как тут cкачать?
MAGNET ссылка
MAGNET ссылка


Скачать .torrent

37 KB

Статус: проверено DHT
Скачан: торрент - 676 раз, раздача полностью - 672 раз
Размер: 7,03 GB
Оценка:  5 (Голосов: 3)
Поблагодарили: 4
Поделиться ссылкой на эту раздачу с друзьями:
В контактеFacebookОдноклассникиTwitterLivejournalМой МирLiveinternet
 

 

onealoner

[] 

Торрент-файл обновлен
 
Показать сообщения:    


Вы не можете начинать темы
Вы не можете отвечать на сообщения
Вы не можете редактировать свои сообщения
Вы не можете удалять свои сообщения
Вы не можете голосовать в опросах
Вы не можете прикреплять файлы к сообщениям
Вы можете скачивать файлы