Loading...
Error

Скачать Два с половиной человека / Two and a Half Men (сезон 8, серии 1-16 из 16) (Lee Aronsohn & Chuck Lorre) [2010 г., Ситком, HDTV 720p] [sub] торрент без регистрации

 
Статистика раздачи
Размер:  8,73 GB   |    Скачан:  230 раз
Сидов:  1  [  0 KB/s  ]  
 
Автор Сообщение

Lexus

[] 

Два с половиной человека / Two and a Half Men / Полный 8 сезон
Год выпуска: 2010
Страна: США
Жанр: ситком, комедия
Продолжительность: ~20 минут
Перевод: субтитры. от notabenoid'a+собственная корректировка.
Русские субтитры: есть
Режиссёр: Гари Хэлворсон, Памэла Фримен, Роб Шиллер
В ролях: Чарли Шин, Джон Крайер, Энгус Т.Джонс, Кончата Феррелл, Холлэнд Тейлор, Марин Хинкль, Мелани Лински, Райан Стайлз, Эммануэль Вогье
Описание: Закоренелый холостяк Чарли, постоянно опасающийся за свою свободу, и его брат Алан, недавно разошедшийся с женой, живут под одной крышей. Чарли только и делает, что заводит любовные интрижки, а Алан всеми силами пытается от него не отстать. В свободное от амурных приключений время братья воспитывают десятилетнего сынишку Алана Джейка: пытаясь сделать из него настоящего мужчину, они порой просвещают его в совсем неподходящих для его возраста областях, учат игре в покер или флирту с девушками.

Качество: HDTV
Формат: MKV
Видео кодек: H.264
Аудио кодек: AC3
Видео: MPEG4 Video (H264) | 1280x720 | 3283kbit/s | 23.98fps | 0.149 bit/pixel
Аудио: Dolby AC3 | 320kbit/s | 48000Hz 6ch

Код:

General
Complete name                    : E:\video\Two.and.a.Half.Men\Two.and.a.Half.Men.s08.hdtv.sub\Two.and.a.Half.Men.S08E01.720p.HDTV.x264.mkv
Format                           : Matroska
File size                        : 558 MiB
Duration                         : 21mn 14s
Overall bit rate                 : 3 676 Kbps
Encoded date                     : UTC 2010-09-20 18:48:13
Writing application              : mkvmerge v3.0.0 ('Hang up your Hang-Ups') built on Apr 19 2010 11:58:49
Writing library                  : libebml v0.7.7 + libmatroska v0.8.1
Video
ID                               : 1
Format                           : AVC
Format/Info                      : Advanced Video Codec
Format profile                   : High@L4.1
Format settings, CABAC           : Yes
Format settings, ReFrames        : 7 frames
Muxing mode                      : Container profile=Unknown@4.1
Codec ID                         : V_MPEG4/ISO/AVC
Duration                         : 21mn 12s
Bit rate                         : 3 283 Kbps
Nominal bit rate                 : 3 356 Kbps
Width                            : 1 280 pixels
Height                           : 720 pixels
Display aspect ratio             : 16:9
Frame rate                       : 23.976 fps
Resolution                       : 8 bits
Colorimetry                      : 4:2:0
Scan type                        : Progressive
Bits/(Pixel*Frame)               : 0.149
Stream size                      : 498 MiB (89%)
Writing library                  : x264 core 102 r1666 d058f37
Encoding settings                : cabac=1 / ref=7 / deblock=1:-1:-1 / analyse=0x3:0x113 / me=umh / subme=9 / psy=1 / psy_rd=1.00:0.00 / mixed_ref=1 / me_range=16 / chroma_me=1 / trellis=1 / 8x8dct=1 / cqm=0 / deadzone=21,11 / fast_pskip=0 / chroma_qp_offset=-2 / threads=16 / sliced_threads=0 / nr=0 / decimate=1 / interlaced=0 / constrained_intra=0 / bframes=3 / b_pyramid=2 / b_adapt=1 / b_bias=0 / direct=3 / weightb=1 / open_gop=0 / weightp=2 / keyint=250 / keyint_min=25 / scenecut=40 / intra_refresh=0 / rc_lookahead=40 / rc=2pass / mbtree=1 / bitrate=3356 / ratetol=1.0 / qcomp=0.60 / qpmin=10 / qpmax=51 / qpstep=4 / cplxblur=20.0 / qblur=0.5 / ip_ratio=1.40 / aq=1:1.10
Language                         : English
Audio
ID                               : 2
Format                           : AC-3
Format/Info                      : Audio Coding 3
Codec ID                         : A_AC3
Duration                         : 21mn 14s
Bit rate mode                    : Constant
Bit rate                         : 320 Kbps
Channel(s)                       : 2 channels
Channel positions                : L R
Sampling rate                    : 48.0 KHz
Stream size                      : 48.6 MiB (9%)
Внимание! Раздача ведётся путём добавления новых серий; при каждом добавлении создётся новый торрент. Чтобы начать докачку новой серии, пользователям необходимо сделать следующее:
(1) остановить скачивание,
(2) удалить старый торрент у себя из клиента (старые серии удалять не надо),
(3) скачать новый торрент и запустить его у себя в клиенте вместо старого, при этом указать клиенту путь в старую папку куда и должно происходить скачивание новых серий.
Ваш клиент при этом должен произвести хеширование (проверку) старой папки (если не производит сам - помогите ему сделать это), и будет докачивать только те серии которых у вас ещё нет. Старые серии при этом не удаляются, а продолжают раздаваться!
Eсли вы уже удалили старые серии, то предотвратить повторную закачку старых серий можно, отжав галочку в соответсвующих местах при запуске нового торрента. По возможности, желательно не удалять старые серии как можно дольше чтобы релизёр не столько продолжал раздавать старые серии, а смог сконцентрироваться на новых.
Season 8, Episode 1: Three Girls and a Guy Named Bud
Original Air Date—20 September 2010
Season 8, Episode 2: A Bottle of Wine and a Jackhammer
Original Air Date—27 September 2010
Season 8, Episode 3: A Pudding Filled Cactus
Original Air Date—4 October 2010
Season 8, Episode 4: Hookers, Hookers, Hookers
Original Air Date—11 October 2010
Season 8, Episode 5: The Immortal Mr. Billy Joel
Original Air Date—18 October 2010
Season 8, Episode 6: Twanging Your Magic Clanger
Original Air Date—25 October 2010
Season 8, Episode 7: The Crazy Bitch Gazette
Original Air Date—1 November 2010
Season 8, Episode 8: Springtime on a Stick
Original Air Date—8 November 2010
Season 8, Episode 9: A Good Time in Central Africa
Original Air Date—15 November 2010
Season 8, Episode 10: Ow, Ow, Don't Stop
Original Air Date—22 November 2010
Season 8, Episode 11: Dead from the Waist Down
Original Air Date—6 December 2010
Season 8, Episode 12: Chocolate Diddlers or My Puppy's Dead
Original Air Date—13 December 2010
Season 8, Episode 13: Skunk, Dog Crap and Ketchup
Original Air Date—3 January 2011
Season 8, Episode 14: Lookin' for Japanese Subs
Original Air Date—17 January 2011
Season 8, Episode 15: Three Hookers and a Philly Cheesesteak
Original Air Date—7 February 2011
Season 8, Episode 16: That Darn Priest
Original Air Date—14 February 2011



Скачать Два.с.половиной.человека.Two.and.a.Half.Men.(сезон.8.серии.1-16.из.16).(Lee.Aronsohn.&.Chuck.Lorre).[2010.г.Ситком.HDTV.720p].[sub].torrent без регистрации
Золото ЗОЛОТАЯ РАЗДАЧА! СКАЧАННОЕ НЕ ЗАСЧИТЫВАЕТСЯ! Золото
Дата: Зарегистрирован   [ Тип: внутренний ] Как тут cкачать?
MAGNET ссылка
MAGNET ссылка


Скачать .torrent

48 KB

Статус: проверено DHT
Скачан: торрент - 230 раз, раздача полностью - 78 раз
Размер: 8,73 GB
Оценка:  - (Голосов: 0)
Поблагодарили: 2
Поделиться ссылкой на эту раздачу с друзьями:
В контактеFacebookОдноклассникиTwitterLivejournalМой МирLiveinternet
 

 

[] 

Топик был перенесен из форума Зарубежные сериалы в форум Два с половиной человека / Two and a Half Men

МихаНЕзатор
 
Показать сообщения:    


Вы не можете начинать темы
Вы не можете отвечать на сообщения
Вы не можете редактировать свои сообщения
Вы не можете удалять свои сообщения
Вы не можете голосовать в опросах
Вы не можете прикреплять файлы к сообщениям
Вы можете скачивать файлы