Loading...
Error

Скачать Два с половиной человека / Two and a Half Men (Сезон 3, Серии 1-24 (24)) (Lee Aronsohn & Chuck Lorre) [2005 г., Ситком, WEB-DL][720p] торрент без регистрации

 
Статистика раздачи
Размер:  16,98 GB   |    Скачан:  156 раз
Сидов:  1  [  0 KB/s  ]  
 
Автор Сообщение

Lexus

[] 

Два с половиной человека / Two and a Half Men
Год выпуска: 2005
Страна: США
Жанр: ситком
Продолжительность: ~24х20 мин
Перевод: Профессиональный (многоголосый, двухголосый, закадровый)
Субтитры: нет
Авторы сериала: Ли Аронсон, Чак Лорри
В ролях: Чарли Шин, Джон Крайер, Энгус Т.Джонс, Кончата Феррелл, Холлэнд Тейлор, Марин Хинкль, Мелани Лински, Райан Стайлз, Эммануэль Вогье
Описание:
Закоренелый холостяк Чарли, постоянно опасающийся за свою свободу, и его брат Алан, когда-то разошедшийся с женой, живут под одной крышей. Чарли только и делает, что заводит любовные интрижки, а Алан всеми силами пытается от него не отстать. В свободное от амурных приключений время братья воспитывают сынишку Алана Джейка... уже 3ой год )
General
Complete name : E:\2.5\Two and a Half Men - Season 3 (WEB-DL, 720p, Rus-Eng)\E01 - Weekend in Bangkok with Two Olympic Gymnasts.mkv
Format : Matroska
File size : 709 MiB
Duration : 22mn 3s
Overall bit rate : 4 498 Kbps
Encoded date : UTC 2011-04-02 05:49:33
Writing application : mkvmerge v4.6.0 ('Still Crazy After All These Years') built on Mar 10 2011 02:50:32
Writing library : libebml v1.2.0 + libmatroska v1.1.0
Video
ID : 1
Format : AVC
Format/Info : Advanced Video Codec
Format profile : High@L3.1
Format settings, CABAC : No
Format settings, ReFrames : 2 frames
Format settings, GOP : M=2, N=32
Codec ID : V_MPEG4/ISO/AVC
Duration : 22mn 3s
Bit rate mode : Variable
Width : 1 280 pixels
Height : 718 pixels
Display aspect ratio : 16:9
Frame rate : 23.976 fps
Color space : YUV
Chroma subsampling : 4:2:0
Bit depth : 8 bits
Scan type : Progressive
Language : English
Color primaries : BT.709-5, BT.1361, IEC 61966-2-4, SMPTE RP177
Transfer characteristics : BT.709-5, BT.1361
Matrix coefficients : BT.709-5, BT.1361, IEC 61966-2-4 709, SMPTE RP177
Audio #1
ID : 2
Format : AC-3
Format/Info : Audio Coding 3
Mode extension : CM (complete main)
Codec ID : A_AC3
Duration : 22mn 3s
Bit rate mode : Constant
Bit rate : 192 Kbps
Channel(s) : 2 channels
Channel positions : Front: L R
Sampling rate : 48.0 KHz
Bit depth : 16 bits
Stream size : 30.3 MiB (4%)
Title : MTV
Language : Russian
Audio #2
ID : 3
Format : AC-3
Format/Info : Audio Coding 3
Mode extension : CM (complete main)
Codec ID : A_AC3
Duration : 22mn 3s
Bit rate mode : Constant
Bit rate : 192 Kbps
Channel(s) : 2 channels
Channel positions : Front: L R
Sampling rate : 48.0 KHz
Bit depth : 16 bits
Stream size : 30.3 MiB (4%)
Title : NTV
Language : Russian
Audio #3
ID : 4
Format : AAC
Format/Info : Advanced Audio Codec
Format version : Version 4
Format profile : LC
Codec ID : A_AAC
Duration : 22mn 3s
Channel(s) : 2 channels
Channel positions : Front: L R
Sampling rate : 48.0 KHz
Title : Eng
Language : English
Text
ID : 5
Format : UTF-8
Codec ID : S_TEXT/UTF8
Codec ID/Info : UTF-8 Plain Text
Title : Eng
Language : English
[/spoiler]
Качество: WEB-DL (iTunes)
Формат: MKV
Видео кодек: H.264
Аудио кодек: AC3, AAC
Видео: MPEG4 Video (H264); 1280x718; 23.98 fps; ~4000 kbps, 0.17 bit/pixel
Аудио:
1 - AC3; 48000Hz; 2ch; 192 kbps [многоголосый перевод] MTV Russia (студия Кравец)
2 - AC3; 48000Hz; 2ch; 192 kbps [двухголосый перевод] НТВ
3 - AAC; 48000Hz; 2ch; 192 kbps [оригинал]



Скачать Два.с.половиной.человека.Two.and.a.Half.Men.(Сезон.3.Серии.1-24.(24)).(Lee.Aronsohn.&.Chuck.Lorre).[2005.г.Ситком.WEB-DL][720p].torrent без регистрации
Золото ЗОЛОТАЯ РАЗДАЧА! СКАЧАННОЕ НЕ ЗАСЧИТЫВАЕТСЯ! Золото
Дата: Зарегистрирован   [ Тип: внутренний ] Как тут cкачать?
MAGNET ссылка
MAGNET ссылка


Скачать .torrent

87 KB

Статус: проверено DHT
Скачан: торрент - 156 раз, раздача полностью - 60 раз
Размер: 16,98 GB
Оценка:  - (Голосов: 0)
Поблагодарили: 0
Поделиться ссылкой на эту раздачу с друзьями:
В контактеFacebookОдноклассникиTwitterLivejournalМой МирLiveinternet
 

 
Показать сообщения:    


Вы не можете начинать темы
Вы не можете отвечать на сообщения
Вы не можете редактировать свои сообщения
Вы не можете удалять свои сообщения
Вы не можете голосовать в опросах
Вы не можете прикреплять файлы к сообщениям
Вы можете скачивать файлы