Loading...
Error

Скачать Два с половиной человека / Two and a Half Men (Сезон 8, Серии 1-16 (16)) (Lee Aronsohn & Chuck Lorre) [2010 г., Ситком, WEB-DL][720p] торрент без регистрации

 
Статистика раздачи
Размер:  10,87 GB   |    Скачан:  161 раз

Полного источника не было: 24 минуты

 
Автор Сообщение

Lexus

[] 

Два с половиной человека / Two and a Half Men
Год выпуска: 2010
Страна: США
Жанр: ситком
Продолжительность: ~16х20 мин
Перевод: любительский двухголосый
Субтитры: русские, английские
Авторы сериала: Ли Аронсон, Чак Лорри
В ролях: Чарли Шин, Джон Крайер, Энгус Т.Джонс, Кончата Феррелл, Холлэнд Тейлор, Марин Хинкль, Мелани Лински, Райан Стайлз, Эммануэль Вогье
Описание:
Закоренелый холостяк Чарли, постоянно опасающийся за свою свободу, и его брат Алан, когда-то разошедшийся с женой, живут под одной крышей. Чарли только и делает, что заводит любовные интрижки, а Алан всеми силами пытается от него не отстать. В свободное от амурных приключений время братья воспитывают сынишку Алана Джейка... уже 8ой год )

02 - A Bottle of Wine and a Jackhammer (Бутылка вина и Джэкхэммер)
03 - A Pudding-Filled Cactus (Пудинг внутри кактуса)
04 - Hookers, Hookers, Hookers (Проститутки, проститутки, проститутки)
05 - The Immortal Mr. Billy Joel (Извечный мистер Билли Джоэл)
06 - Twanging Your Magic Clanger (Звенящее очарование твоего промаха)
07 - The Crazy Bitch Gazette (Вестник "Чокнутая сучка")
08 - Springtime on a Stick (Весна на палочке)
09 - A Good Time In Central Africa (Веселуха в центральной Африке)
10 - Ow, Ow, Don't Stop (Ух, ах, продолжай...)
11 - Dead From the Waist Down (Парализован ниже пояса)
12 - Chocolate Diddlers or My Puppy's Dead (Шоколадная фигня или мой щенок сдох)
13 - Skunk, Dog Crap and Ketchup (Скунс, собачье дерьмо и кетчуп)
14 - Lookin' for Japanese Subs (Высматривая японские подлодки)
15 - Three Hookers and a Philly Cheesesteak (Три проститутки и сырная палочка)
16 - That Darn Priest (Тот чертов священник)[/spoiler]
General
Complete name : E:\2.5\Two and a Half Men - Season 8 (WEB-DL, 720p, Rus-Eng)\E01 - Three Girls and a Guy Named Bud.mkv
Format : Matroska
File size : 689 MiB
Duration : 21mn 32s
Overall bit rate : 4 473 Kbps
Encoded date : UTC 2010-09-29 10:42:31
Writing application : mkvmerge v2.4.0 ('Fumbling Towards Ecstasy') built on Oct 11 2008 20:13:15
Writing library : libebml v0.7.7 + libmatroska v0.8.1
Video
ID : 1
Format : AVC
Format/Info : Advanced Video Codec
Format profile : High@L3.1
Format settings, CABAC : No
Format settings, ReFrames : 2 frames
Muxing mode : Container profile=Unknown@3.1
Codec ID : V_MPEG4/ISO/AVC
Duration : 21mn 32s
Bit rate : 3 808 Kbps
Width : 1 280 pixels
Height : 720 pixels
Display aspect ratio : 16:9
Frame rate : 23.976 fps
Color space : YUV
Chroma subsampling : 4:2:0
Bit depth : 8 bits
Scan type : Progressive
Bits/(Pixel*Frame) : 0.172
Stream size : 587 MiB (85%)
Language : English
Color primaries : BT.709-5, BT.1361, IEC 61966-2-4, SMPTE RP177
Transfer characteristics : BT.709-5, BT.1361
Matrix coefficients : BT.709-5, BT.1361, IEC 61966-2-4 709, SMPTE RP177
Audio #1
ID : 2
Format : AC-3
Format/Info : Audio Coding 3
Mode extension : CM (complete main)
Codec ID : A_AC3
Duration : 21mn 32s
Bit rate mode : Constant
Bit rate : 192 Kbps
Channel(s) : 2 channels
Channel positions : Front: L R
Sampling rate : 48.0 KHz
Bit depth : 16 bits
Stream size : 29.6 MiB (4%)
Title : Jimmy J & El-in
Language : Russian
Audio #2
ID : 3
Format : AC-3
Format/Info : Audio Coding 3
Mode extension : CM (complete main)
Codec ID : A_AC3
Duration : 21mn 32s
Bit rate mode : Constant
Bit rate : 384 Kbps
Channel(s) : 6 channels
Channel positions : Front: L C R, Side: L R, LFE
Sampling rate : 48.0 KHz
Bit depth : 16 bits
Stream size : 59.2 MiB (9%)
Title : Eng
Language : English
Text #1
ID : 4
Format : ASS
Codec ID : S_TEXT/ASS
Codec ID/Info : Advanced Sub Station Alpha
Title : Rus
Language : Russian
Text #2
ID : 5
Format : ASS
Codec ID : S_TEXT/ASS
Codec ID/Info : Advanced Sub Station Alpha
Title : Eng
Language : English
[/spoiler]
Качество: WEB-DL (iTunes)
Формат: MKV
Видео кодек: H.264
Аудио кодек: AC3
Видео: MPEG4 Video (H264); 1280x720; 23.98 fps; ~4000 kbps, 0.17 bit/pixel
Аудио:
1 - AC3; 48000Hz; 2ch; 192 kbps [закадровый перевод]
2 - AC3; 48000Hz; 6ch; 384 kbps [оригинал]



Скачать Два.с.половиной.человека.Two.and.a.Half.Men.(Сезон.8.Серии.1-16.(16)).(Lee.Aronsohn.&.Chuck.Lorre).[2010.г.Ситком.WEB-DL][720p].torrent без регистрации
Золото ЗОЛОТАЯ РАЗДАЧА! СКАЧАННОЕ НЕ ЗАСЧИТЫВАЕТСЯ! Золото
Дата: Зарегистрирован   [ Тип: внутренний ] Как тут cкачать?
MAGNET ссылка
MAGNET ссылка


Скачать .torrent

56 KB

Статус: проверено DHT
Скачан: торрент - 161 раз, раздача полностью - 42 раз
Размер: 10,87 GB
Оценка:  4 (Голосов: 1)
Поблагодарили: 1
Поделиться ссылкой на эту раздачу с друзьями:
В контактеFacebookОдноклассникиTwitterLivejournalМой МирLiveinternet
 

 
Показать сообщения:    


Вы не можете начинать темы
Вы не можете отвечать на сообщения
Вы не можете редактировать свои сообщения
Вы не можете удалять свои сообщения
Вы не можете голосовать в опросах
Вы не можете прикреплять файлы к сообщениям
Вы можете скачивать файлы