Loading...
Error

Скачать Два с половиной человека / Two and a Half Men (4 сезон, 24 серии (24)) (Джеймс Уиддоуз, Роберт Берлингер) [2006 г., Комедия, WEB-DLRip] [MTV] торрент без регистрации

 
Статистика раздачи
Размер:  8,22 GB   |    Скачан:  222 раза

Полного источника не было: 27 минут

 
Автор Сообщение

Lexus

[] 


Год выпуска: 2006
Страна
: США
Жанр: Комедия
Продолжительность: ~ 00:21:00
Режиссер: Джеймс Уиддоуз / James Widdoes, Роберт Берлингер / Robert Berlinger
Продюссер: Ли Аронсон, Чак Лорри, Майкл Колье
Сценарий: Чак Лорри, Дэвид Ричардсон, Дон Рио



В ролях:
Чарли Шин, Джон Крайер, Энгус Т. Джонс, Кончата Феррелл, Марин Хинкль, Мелани Лински
Описание:
«Два с половиной человека» - это американский ситком, премьера которого состоялась на телеканале CBS в понедельник, 22 сентября 2003 года.
Сюжет развивается вокруг Чарли Харпера, веселого гуляки, зарабатывающего себе на хлеб написанием рекламных мелодий. Чарли живет в пляжном домике в Малибу, ездит на дорогих машинах и играючи соблазяет самых красивых женщин Лос-Анджелеса. Однако, его беззаботное течение его жизни внезапно нарушается появлением младшего брата Алана. Жена Алана, Джудит, выгоняет его из дома и ему приходится переехать к брату. В нагрузку к младшему брату прилагается его сын Джейк, не слишком умный и весьма упитанный десятилетний парнишка, тратящий большую часть своего свободного времени на еду, сон, телевизор и видеоигры. В доме Чарли также регулярно появляются мать Братьев Харперов, Эвелин - эгоцентричная особа, которую сыновья обычно ассоциируют с дьяволом, - и соседка Роуз, с которой Чарли однажды имел глупость переспать, и которая теперь его преследует.
Кроме того, нельзя не отметить еще одну женщину, имеющую огромное влияние на Чарли Харпера, - его обаятельную домохозяйку Берту, без саркастических комментариев которой этот ситком бы осиротел.
Качество: WEB-DLRip
Озвучивание: Профессиональное (многоголосое, закадровое)[MTV]
Субтитры: Английские
Формат: AVI
Видео кодек: XviD
Аудио кодек: AC3
Видео: 720x400 (1.82:1), 23.976 fps, XviD, ~1900 kbps avg, 0.275 bit/pixel
Аудио №1 Rus: AC3; 48000Hz; 2ch; 192 kbps [закадровый перевод MTV] Студия Кравец
Аудио №2 Eng: MPEG Audio Layer 3 48000Hz stereo 192Kbps
Субтитры: Eng (SRT) внешние




Внимание! Раздача ведётся путём добавления новых серий. При каждом добавлении создаётся новый торрент. Чтобы начать докачку новой серии, пользователям необходимо сделать следующее:
1. остановить скачивание;
2. удалить старый торрент у себя из клиента (старые серии удалять не надо);
3. скачать новый торрент и запустить его у себя в клиенте вместо старого, при этом указать клиенту путь в старую папку куда и должно происходить скачивание новых серий.
Ваш клиент при этом должен произвести хеширование (проверку) старой папки (если не производит сам - помогите ему сделать это), и будет докачивать только те серии которых у вас ещё нет. Старые серии при этом не удаляются, а продолжают раздаваться!
Eсли вы уже удалили старые серии, то предотвратить повторную закачку старых серий можно, отжав галочку в соответствующих местах при запуске нового торрента.

Код:

General
Complete name                    : D:\Video\Serials\Two.And.A.Half.Men\Two.And.A.Half.Men.S04.WEB-DL-Rip.XviD\Two.and.a.Half.Men.S04.E01.WEB-DL.Rip.XviD.avi
Format                           : AVI
Format/Info                      : Audio Video Interleave
File size                        : 351 MiB
Duration                         : 22mn 16s
Overall bit rate                 : 2 206 Kbps
Writing application              : VirtualDubMod 1.5.10.2 (build 2540/release)
Writing library                  : VirtualDubMod build 2540/release
Video
ID                               : 0
Format                           : MPEG-4 Visual
Format profile                   : Advanced Simple@L5
Format settings, BVOP            : 1
Format settings, QPel            : No
Format settings, GMC             : No warppoints
Format settings, Matrix          : Default (MPEG)
Codec ID                         : XVID
Codec ID/Hint                    : XviD
Duration                         : 22mn 16s
Bit rate                         : 1 808 Kbps
Width                            : 720 pixels
Height                           : 400 pixels
Display aspect ratio             : 16:9
Frame rate                       : 23.976 fps
Color space                      : YUV
Chroma subsampling               : 4:2:0
Bit depth                        : 8 bits
Scan type                        : Progressive
Compression mode                 : Lossy
Bits/(Pixel*Frame)               : 0.262
Stream size                      : 288 MiB (82%)
Writing library                  : XviD 1.2.1 (UTC 2008-12-04)
Audio #1
ID                               : 1
Format                           : AC-3
Format/Info                      : Audio Coding 3
Mode extension                   : CM (complete main)
Codec ID                         : 2000
Duration                         : 22mn 16s
Bit rate mode                    : Constant
Bit rate                         : 192 Kbps
Channel(s)                       : 2 channels
Channel positions                : Front: L R
Sampling rate                    : 48.0 KHz
Bit depth                        : 16 bits
Compression mode                 : Lossy
Stream size                      : 30.6 MiB (9%)
Alignment                        : Split accross interleaves
Interleave, duration             : 42 ms (1.00 video frame)
Interleave, preload duration     : 500 ms
Title                            : MTV
Audio #2
ID                               : 2
Format                           : MPEG Audio
Format version                   : Version 1
Format profile                   : Layer 3
Mode                             : Joint stereo
Codec ID                         : 55
Codec ID/Hint                    : MP3
Duration                         : 22mn 16s
Bit rate mode                    : Constant
Bit rate                         : 192 Kbps
Channel(s)                       : 2 channels
Sampling rate                    : 32.0 KHz
Compression mode                 : Lossy
Stream size                      : 30.6 MiB (9%)
Alignment                        : Aligned on interleaves
Interleave, duration             : 42 ms (1.00 video frame)
Interleave, preload duration     : 504 ms
Title                            : ENG

* Фамилия Харпер, возможно является аллюзией, связанной с именем героя Чарли Шина в фильме «Горячие головы», где его звали Топер Харли (Харли Топер > ХАР(ли то)ПЕР). Кроме того герои сериала уже встречались на съемочной площадке «Горячих голов». Джон Краер играл в первой серии фильма, Раен Стайлс — эпизодическую роль в первой и роль второго плана — во второй.
* В мультипликационном сериале «Гриффины» есть две ссылки на «Два с половиной человека». В первый раз Питер Гриффин включает для Бонни Суонсон телевизор: на экране появляются Чарли с Аланом; в ответ на жалобы Алана о том, что у него давно не было свиданий, Чарли предлагает ему номер из своей «маленькой черной книжечки», при этом из-за спины он достает огромный том и с грохотом опрокидывает его на стол. Второй раз создателями Гриффинов, в традиционном для них стиле черного юмора, обыгрывается название «Два с половиной человека». Мэг и Крис включают телевизор, диктор произносит:"And now back to «Two and a half men» ("А теперь снова «Два с половиной человека») и на экране с дикими криками появляются «трое» мужчин, у одного из которых полностью отсутствует нижняя часть тела. Истекая кровью он кричит: «Please! Kill me!!» («Пожалуйста! Убейте меня!»).
* В «Симпсонах» встречается ссылка на «Два с половиной человека»: Гомер Симпсон смотрит отрывок сериала на новом ж/к телевизоре в гостях у Ленни (17 сезон, 15 серия — «Гомер Симпсон, это твоя жена»). Также Мардж Симпсон, благодаря TiVo умудрилась посмотреть весь сериал за две с половиной минуты (19 сезон, 8 эпизод — «Похороны друга»).


* Эпизод 1: Working for Caligula
* Эпизод 2: Who’s Vod Kanockers?
* Эпизод 3: The Sea is a Harsh Mistress
* Эпизод 4: A Pot Smoking Monkey
* Эпизод 5: A Live Woman of Proven Fertility
* Эпизод 6: Apologies for the Frivolity
* Эпизод 7: Repeated Blows to His Unformed Head
* Эпизод 8: Release the Dogs
* Эпизод 9: Corey’s Been Dead for an Hour
* Эпизод 10: Kissing Abraham Lincoln
* Эпизод 11: Walnuts and Demerol
* Эпизод 12: Castrating Sheep in Montana
* Эпизод 13: Don’t Worry, Speed Racer
* Эпизод 14: That’s Summer Sausage, Not Salami
* Эпизод 15: My Damn Stalker
* Эпизод 16: Young People Have Phlegm Too
* Эпизод 17: I Merely Slept With a Commie
* Эпизод 18: It Never Rains in Hooterville
* Эпизод 19: Smooth as a Ken Doll
* Эпизод 20: Aunt Myra Doesn’t Pee a Lot
* Эпизод 21: Tucked, Taped and Gorgeous
* Эпизод 22: Mr. McGlue’s Feedbag
* Эпизод 23: Anteaters. They’re Just Crazy-Lookin
* Эпизод 24: Prostitutes and Gelato


[align=center] | |



Скачать Два.с.половиной.человека.Two.and.a.Half.Men.(4.сезон.24.серии.(24)).(Джеймс.Уиддоуз.Роберт.Берлингер).[2006.г.Комедия.WEB-DLRip].[MTV].torrent без регистрации
Золото ЗОЛОТАЯ РАЗДАЧА! СКАЧАННОЕ НЕ ЗАСЧИТЫВАЕТСЯ! Золото
Дата: Зарегистрирован   [ Тип: внутренний ] Как тут cкачать?
MAGNET ссылка
MAGNET ссылка


Скачать .torrent

45 KB

Статус: проверено DHT
Скачан: торрент - 222 раз, раздача полностью - 128 раз
Размер: 8,22 GB
Оценка:  - (Голосов: 0)
Поблагодарили: 0
Поделиться ссылкой на эту раздачу с друзьями:
В контактеFacebookОдноклассникиTwitterLivejournalМой МирLiveinternet
 

 
Показать сообщения:    


Вы не можете начинать темы
Вы не можете отвечать на сообщения
Вы не можете редактировать свои сообщения
Вы не можете удалять свои сообщения
Вы не можете голосовать в опросах
Вы не можете прикреплять файлы к сообщениям
Вы можете скачивать файлы