Loading...
Error

Скачать Два с половиной человека / Two and a Half Men (Сезон 8, эпизод 1-5 (22)) (Гари Хэлворсон, Памэла Фримен, Роб Шиллер)[2010 г., комедия, WEB-DL-Rip] торрент без регистрации

 
Статистика раздачи
Размер:  1,37 GB   |    Скачан:  121 раз
Сидов:  1  [  0 KB/s  ]  
 
Автор Сообщение

Lexus

[] 

Два с половиной человека / Two and a Half Men
Производство: США, 2010
Жанр: комедия
Продолжительность: ~ 21 мин
Русский перевод
Перевод: Антонина Петухова
Озвучание: Профессиональный одноголосый закадровый (Tim Wagner)
Украинский перевод
Перевод: Bilko
Озвучание: Профессиональный двухголосый /Д. Бузинский и В. Зайцева (hurtom)/
Монтаж звука: Puma.ua
Субтитры: отсутствуют
Режиссёр: Джеймс Уидоус, Джен Сэгел, Джеф Мелман
Сценарий: Чак Лорелл, Ли Аронсон, Марк Робертс, Дон Фостер, Джим Патерсон.
В ролях:
Чарли Шин (Charlie Sheen), Джон Крайер (Jon Cryer), Энгус Ти Джонс (Angus T. Jones), Мэрин Хинкл (Marin Hinkle), Кончата Ферелл (Conchata Ferrell)
Описание:
Закоренелый холостяк Чарли, постоянно опасающийся за свою свободу, и его брат Алан, недавно разошедшийся с женой, живут под одной крышей. Чарли только и делает, что заводит любовные интрижки, а Алан всеми силами пытается от него не отстать. В свободное от амурных приключений время братья воспитывают десятилетнего сынишку Алана Джейка: пытаясь сделать из него настоящего мужчину, они порой просвещают его в совсем неподходящих для его возраста областях, учат игре в покер или флирту с девушками.
Качество: WEB-DL-Rip
Формат: avi
Видео: XviD, 720 x 400, ~1300 Kbps, 23.976 fps, 0.188bit/pixel
Аудио Rus: Профессиональный одноголосый закадровый (Tim Wagner) - AC3, 2 ch, 48 kHz, 192 kbps
Аудио Eng: Оригинальная дорожка (English) - AC3, 2 ch, 48 kHz, 192 kbps
Аудио Ukr: Профессиональный двухголосый /Д. Бузинский и В. Зайцева (hurtom)/ - MP3, 2 ch, 48 kHz, 128 kbps - Отдельным файлом



Три девушки и парень по имени Бад / Three Girls and a Guy Named Bud
Бутылка вина и отбойный молоток / A Bottle of Wine and a Jackhammer
Кактус Заполненный пудингом / Pudding-Filled Cactus
Проститутки, проститутки, проститутки / Hookers, Hookers, Hookers
General
Complete name : G:\Two.And.A.Half.Men.S08.WEB-DL-Rip.XviD.by.Volshebnik\Two.And.A.Half.Men.S08.E01.WEB-DL-Rip.XviD.by.Volshebnik.avi
Format : AVI
Format/Info : Audio Video Interleave
File size : 261 MiB
Duration : 21mn 32s
Overall bit rate : 1 697 Kbps
Movie name : Три девушки и парень по имени Бад / Three Girls and a Guy Named Bud
Director : by Volshebnik
Writing application : VirtualDubMod 1.5.10.2 (build 2542/release)
Writing library : VirtualDubMod build 2542/release
Video
ID : 0
Format : MPEG-4 Visual
Format profile : Advanced Simple@L5
Format settings, BVOP : Yes
Format settings, QPel : No
Format settings, GMC : No warppoints
Format settings, Matrix : Default (H.263)
Codec ID : XVID
Codec ID/Hint : XviD
Duration : 21mn 32s
Bit rate : 1 299 Kbps
Width : 720 pixels
Height : 400 pixels
Display aspect ratio : 16:9
Frame rate : 23.976 fps
Resolution : 8 bits
Colorimetry : 4:2:0
Scan type : Progressive
Bits/(Pixel*Frame) : 0.188
Stream size : 200 MiB (77%)
Writing library : XviD 1.2.1 (UTC 2008-12-04)
Audio #1
ID : 1
Format : AC-3
Format/Info : Audio Coding 3
Codec ID : 2000
Duration : 21mn 32s
Bit rate mode : Constant
Bit rate : 192 Kbps
Channel(s) : 2 channels
Channel positions : L R
Sampling rate : 48.0 KHz
Stream size : 29.6 MiB (11%)
Alignment : Split accross interleaves
Interleave, duration : 42 ms (1.00 video frame)
Interleave, preload duration : 500 ms
Title : Cinema SET
Audio #2
ID : 2
Format : AC-3
Format/Info : Audio Coding 3
Codec ID : 2000
Duration : 21mn 32s
Bit rate mode : Constant
Bit rate : 192 Kbps
Channel(s) : 2 channels
Channel positions : L R
Sampling rate : 48.0 KHz
Stream size : 29.6 MiB (11%)
Alignment : Split accross interleaves
Interleave, duration : 42 ms (1.00 video frame)
Interleave, preload duration : 500 ms
Title : English
Внимание! Раздача ведётся путём добавления новых серий; при каждом добавлении создётся новый торрент. Чтобы начать докачку новой серии, пользователям необходимо сделать следующее:
(1) остановить скачивание,
(2) удалить старый торрент у себя из клиента (старые серии удалять не надо),
(3) скачать новый торрент и запустить его у себя в клиенте вместо старого, при этом указать клиенту путь в старую папку куда и должно происходить скачивание новых серий.
Ваш клиент при этом должен произвести хеширование (проверку) старой папки (если не производит сам - помогите ему сделать это), и будет докачивать только те серии которых у вас ещё нет. Старые серии при этом не удаляются, а продолжают раздаваться!
Eсли вы уже удалили старые серии, то предотвратить повторную закачку старых серий можно, отжав галочку в соответсвующих местах при запуске нового торрента. По возможности, желательно не удалять старые серии как можно дольше чтобы релизёр не столько продолжал раздавать старые серии, а смог сконцентрироваться на новых.


Season 8, Episode 6: Twanging Your Magic Clanger
Original Air Date—25 October 2010
Season 8, Episode 7: The Crazy Bitch Gazette
Original Air Date—1 November 2010
Season 8, Episode 8: Springtime on a Stick
Original Air Date—8 November 2010



Скачать Два.с.половиной.человека.Two.and.a.Half.Men.(Сезон.8.эпизод.1-5.(22)).(Гари.Хэлворсон.Памэла.Фримен.Роб.Шиллер)[2010.г.комедия.WEB-DL-Rip].torrent без регистрации
Золото ЗОЛОТАЯ РАЗДАЧА! СКАЧАННОЕ НЕ ЗАСЧИТЫВАЕТСЯ! Золото
Дата: Зарегистрирован   [ Тип: внутренний ] Как тут cкачать?
MAGNET ссылка
MAGNET ссылка


Скачать .torrent

15 KB

Статус: проверено DHT
Скачан: торрент - 121 раз, раздача полностью - 4 раз
Размер: 1,37 GB
Оценка:  - (Голосов: 0)
Поблагодарили: 0
Поделиться ссылкой на эту раздачу с друзьями:
В контактеFacebookОдноклассникиTwitterLivejournalМой МирLiveinternet
 

 
Показать сообщения:    


Вы не можете начинать темы
Вы не можете отвечать на сообщения
Вы не можете редактировать свои сообщения
Вы не можете удалять свои сообщения
Вы не можете голосовать в опросах
Вы не можете прикреплять файлы к сообщениям
Вы можете скачивать файлы