Loading...
Error

Скачать Два с половиной человека / Two and a Half Men (Сезон 6, Серии 1-24 (24)) (Lee Aronsohn, Chuck Lorre) [2008 г., Ситком, DVDRip] [НТВ] торрент без регистрации

 
Статистика раздачи
Размер:  4,57 GB   |    Скачан:  202 раза
Сидов:  1  [  0 KB/s  ]  
 
Автор Сообщение

Lexus

[] 

Два с половиной человека / Two and a Half Men
Год выпуска: 2008
Страна: США
Жанр: ситком
Продолжительность: ~24х20 мин
Перевод: Профессиональный (двухголосый, закадровый перевод канала НТВ)
Русские субтитры: нет
Авторы сериала: Ли Аронсон, Чак Лорри
В ролях: Чарли Шин, Джон Крайер, Энгус Т.Джонс, Кончата Феррелл, Холлэнд Тейлор, Марин Хинкль, Мелани Лински, Райан Стайлз, Эммануэль Вогье
Описание:
Закоренелый холостяк Чарли, постоянно опасающийся за свою свободу, и его брат Алан, когда-то разошедшийся с женой, живут под одной крышей. Чарли только и делает, что заводит любовные интрижки, а Алан всеми силами пытается от него не отстать. В свободное от амурных приключений время братья воспитывают сынишку Алана Джейка... уже 6ой год )
General
Complete name : E:\2.5\Two and a Half Men - Season 6 (DVDRip, Rus[НТВ]-Eng)\01 - Taterhead Is Our Love Child.avi
Format : AVI
Format/Info : Audio Video Interleave
File size : 194 MiB
Duration : 21mn 17s
Overall bit rate : 1 273 Kbps
Writing application : VirtualDubMod 1.5.10.2 (build 2542/release)
Writing library : VirtualDubMod build 2542/release
Video
ID : 0
Format : MPEG-4 Visual
Format profile : Advanced Simple@L5
Format settings, BVOP : Yes
Format settings, QPel : No
Format settings, GMC : No warppoints
Format settings, Matrix : Default (H.263)
Muxing mode : Packed bitstream
Codec ID : XVID
Codec ID/Hint : XviD
Duration : 21mn 17s
Bit rate : 994 Kbps
Width : 640 pixels
Height : 352 pixels
Display aspect ratio : 16:9
Frame rate : 23.976 fps
Color space : YUV
Chroma subsampling : 4:2:0
Bit depth : 8 bits
Scan type : Progressive
Bits/(Pixel*Frame) : 0.184
Stream size : 151 MiB (78%)
Writing library : XviD 1.2.1 (UTC 2008-12-04)
Audio #1
ID : 1
Format : MPEG Audio
Format version : Version 1
Format profile : Layer 3
Mode : Joint stereo
Mode extension : MS Stereo
Codec ID : 55
Codec ID/Hint : MP3
Duration : 21mn 17s
Bit rate mode : Constant
Bit rate : 128 Kbps
Channel(s) : 2 channels
Sampling rate : 48.0 KHz
Stream size : 19.5 MiB (10%)
Alignment : Split accross interleaves
Interleave, duration : 42 ms (1.00 video frame)
Interleave, preload duration : 500 ms
Writing library : LAME3.98.@ЃЖ\‡>щY“
Audio #2
ID : 2
Format : MPEG Audio
Format version : Version 1
Format profile : Layer 3
Mode : Joint stereo
Mode extension : MS Stereo
Codec ID : 55
Codec ID/Hint : MP3
Duration : 21mn 17s
Bit rate mode : Variable
Bit rate : 128 Kbps
Channel(s) : 2 channels
Sampling rate : 48.0 KHz
Stream size : 20.4 MiB (11%)
Alignment : Aligned on interleaves
Interleave, duration : 24 ms (0.58 video frame)
Interleave, preload duration : 137 ms
Writing library : LAME3.96r
Encoding settings : -m j -V 4 -q 3 -lowpass 17.5 --abr 128
Качество: DVDRip
Формат: AVI
Видео кодек: XviD
Аудио кодек: MP3
Видео: Xvid; 640x352; 23.98fps; ~1000kbps; 0.184 bit/pixel
Аудио:
1 - MPEG Audio Layer 3; 48000Hz; stereo; 128kbps [перевод]
2 - MPEG Audio Layer 3; 48000Hz; stereo; 128kbps [оригинал]



Скачать Два.с.половиной.человека.Two.and.a.Half.Men.(Сезон.6.Серии.1-24.(24)).(Lee.Aronsohn.Chuck.Lorre).[2008.г.Ситком.DVDRip].[НТВ].torrent без регистрации
Золото ЗОЛОТАЯ РАЗДАЧА! СКАЧАННОЕ НЕ ЗАСЧИТЫВАЕТСЯ! Золото
Дата: Зарегистрирован   [ Тип: внутренний ] Как тут cкачать?
MAGNET ссылка
MAGNET ссылка


Скачать .torrent

25 KB

Статус: проверено DHT
Скачан: торрент - 202 раз, раздача полностью - 214 раз
Размер: 4,57 GB
Оценка:  - (Голосов: 0)
Поблагодарили: 0
Поделиться ссылкой на эту раздачу с друзьями:
В контактеFacebookОдноклассникиTwitterLivejournalМой МирLiveinternet
 

 
Показать сообщения:    


Вы не можете начинать темы
Вы не можете отвечать на сообщения
Вы не можете редактировать свои сообщения
Вы не можете удалять свои сообщения
Вы не можете голосовать в опросах
Вы не можете прикреплять файлы к сообщениям
Вы можете скачивать файлы