Loading...
Error

Скачать Два с половиной человека / Two and a Half Men (Сезон 6, эпизод 1-24) [2008 г., ситком, WEB-DL RIP] торрент без регистрации

 
Статистика раздачи
Размер:  6,06 GB   |    Скачан:  199 раз
Сидов:  1  [  0 KB/s  ]  
 
Автор Сообщение

Lexus

[] 

Два с половиной человека / Two and a Half Men
Производство: США, 2008
Жанр: комедия
Продолжительность: ~ 21 мин
Перевод: Профессиональный (двухголосый, закадровый перевод канала НТВ) + Любительский одноголосный закадровый
Режиссёр: Джеймс Уидоус, Джен Сэгел, Джеф Мелман
Сценарий: Чак Лорелл, Ли Аронсон, Марк Робертс, Дон Фостер, Джим Патерсон.
В ролях:
Чарли Шин (Charlie Sheen), Джон Крайер (Jon Cryer), Энгус Ти Джонс (Angus T. Jones), Мэрин Хинкл (Marin Hinkle), Кончата Ферелл (Conchata Ferrell)

Описание:
Закоренелый холостяк Чарли, постоянно опасающийся за свою свободу, и его брат Алан, недавно разошедшийся с женой, живут под одной крышей. Чарли только и делает, что заводит любовные интрижки, а Алан всеми силами пытается от него не отстать. В свободное от амурных приключений время братья воспитывают десятилетнего сынишку Алана Джейка: пытаясь сделать из него настоящего мужчину, они порой просвещают его в совсем неподходящих для его возраста областях, учат игре в покер или флирту с девушками.
Качество: WEB-DL RIP
Формат: avi
Видео: XviD, 720 x 400, ~1300 Kbps, 25 fps, 0.180 bit/pixel
Аудио Rus1: Профессиональный (двухголосый, закадровый перевод канала НТВ) - MP3, 2 ch, 48 kHz, 128 kbps
Аудио Rus2: Одноголосый, закадровый - MP3, 2 ch, 48 kHz, 128 kbps
Аудио Eng: Оригинальная дорожка (English) - AC3, 2 ch, 48 kHz, 192 kbps
Перевод 1001cinema
Перевод: homyakov
Редактор: Spooner
Озвучка: Zamez & Spooner
Перевод НТВ
Текст читают: Наталья Казначеева и Михаил Тихонов
Подготовка рипа: Volshebnik

1. Этот тупица - плод нашей любви (Taterhead Is Our Love Child)
2. Закрой хлеборезку, Херб (Pie Hole, Herb)
3. Чертовы яйца по-бенедиктински (Damn You, Eggs Benedict)
4. Флавин и Мавин (The Flavin’ and the Mavin)
5. Подвязки в аду (A Jock Strap in Hell)
6. Всегда неделя нацистов (It’s Always Nazi Week)
7. Лучшая штучка, что можно купить за деньги (Best H.O. Money Can Buy)
8. Рот Пиноккио (Pinocchio’s Mouth)
9. Сачок из Бу (A Mooch at the Boo)
10. Он почуял ветчину, заволновался (He Smelled the Ham, He Got Excited)
11. Смазка дьявола (The Devil’s Lube)
12. Да здравствует сколиоз! (Thank God for scoliosis!)
13. Я думаю, ты оскорбил Дона (I Think You Offended Don)
14. Дэвид Копперфилд подсыпал мне снотворного (David Copperfield Slipped Me A Roofie)
15. Давай начнем с кота (I’d Like to Start with the Cat)
16. Она все еще будет мертвой в перерыве (She’ll Still Be Dead at Halftime)
17. “За” или “нято”? (The ‘Ocu’ or the ‘Pado’?)
18. Огромная голова моего сына (My Son’s Enormous Head)
19. Правило двух пальцев (The Two Finger Rule)
20. Привет, я Алан Кусто (Hello, I’m Alan Cousteau)
21. Выше благородных циклопов (Above Exalted Cyclops)
22. Лоток Сэра Ланцелота (Sir Lancelot’s Litter Box)
23. Доброе утро, миссис Баттерворф (Good Morning, Mrs. Butterworth)
24. Бейсбол был лучше со стероидами (Baseball Was Better With Steroids)
Video
ID : 0
Format : MPEG-4 Visual
Format profile : Advanced Simple@L5
Format settings, BVOP : Yes
Format settings, QPel : No
Format settings, GMC : No warppoints
Format settings, Matrix : Default (H.263)
Codec ID : XVID
Codec ID/Hint : XviD
Duration : 19mn 27s
Bit rate : 1 299 Kbps
Width : 720 pixels
Height : 400 pixels
Display aspect ratio : 16:9
Frame rate : 25.000 fps
Resolution : 8 bits
Colorimetry : 4:2:0
Scan type : Progressive
Bits/(Pixel*Frame) : 0.180
Stream size : 181 MiB (74%)
Writing library : XviD 1.2.1 (UTC 2008-12-04)
Audio #1
ID : 1
Format : MPEG Audio
Format version : Version 1
Format profile : Layer 3
Format_Settings_Mode : Joint stereo
Format_Settings_ModeExtension : MS Stereo
Codec ID : 55
Codec ID/Hint : MP3
Duration : 19mn 27s
Bit rate mode : Constant
Bit rate : 128 Kbps
Channel(s) : 2 channels
Sampling rate : 44.1 KHz
Stream size : 17.8 MiB (7%)
Alignment : Split accross interleaves
Interleave, duration : 40 ms (1.00 video frame)
Interleave, preload duration : 500 ms
Title : NTV
Audio #2
ID : 2
Format : MPEG Audio
Format version : Version 1
Format profile : Layer 3
Format_Settings_Mode : Joint stereo
Format_Settings_ModeExtension : MS Stereo
Codec ID : 55
Codec ID/Hint : MP3
Duration : 19mn 27s
Bit rate mode : Constant
Bit rate : 128 Kbps
Channel(s) : 2 channels
Sampling rate : 48.0 KHz
Stream size : 17.8 MiB (7%)
Alignment : Aligned on interleaves
Interleave, duration : 40 ms (1.00 video frame)
Interleave, preload duration : 504 ms
Title : 1001cinema
Audio #3
ID : 3
Format : AC-3
Format/Info : Audio Coding 3
Codec ID : 2000
Duration : 19mn 27s
Bit rate mode : Constant
Bit rate : 192 Kbps
Channel(s) : 2 channels
Channel positions : L R
Sampling rate : 48.0 KHz
Stream size : 26.7 MiB (11%)
Alignment : Split accross interleaves
Interleave, duration : 40 ms (1.00 video frame)
Interleave, preload duration : 500 ms
Title : English






Скачать Два.с.половиной.человека.Two.and.a.Half.Men.(Сезон.6.эпизод.1-24).[2008.г.ситком.WEB-DL.RIP].torrent без регистрации
Золото ЗОЛОТАЯ РАЗДАЧА! СКАЧАННОЕ НЕ ЗАСЧИТЫВАЕТСЯ! Золото
Дата: Зарегистрирован   [ Тип: внутренний ] Как тут cкачать?
MAGNET ссылка
MAGNET ссылка


Скачать .torrent

33 KB

Статус: проверено DHT
Скачан: торрент - 199 раз, раздача полностью - 80 раз
Размер: 6,06 GB
Оценка:  - (Голосов: 0)
Поблагодарили: 1
Поделиться ссылкой на эту раздачу с друзьями:
В контактеFacebookОдноклассникиTwitterLivejournalМой МирLiveinternet
 

 
Показать сообщения:    


Вы не можете начинать темы
Вы не можете отвечать на сообщения
Вы не можете редактировать свои сообщения
Вы не можете удалять свои сообщения
Вы не можете голосовать в опросах
Вы не можете прикреплять файлы к сообщениям
Вы можете скачивать файлы