Loading...
Error

Скачать Два с половиной человека / Two and a Half Men (Сезон 1, серии 1-24 (24)) (Гари Хэлворсон, Памэла Фримен, Роб Шиллер) [2003 г., Ситком, Комедия, WEB-DL rip] торрент без регистрации

 
Статистика раздачи
Размер:  7,6 GB   |    Скачан:  251 раз
Сидов:  1  [  0 KB/s  ]  
 
Автор Сообщение

Lexus

[] 

Два с половиной человека / Two and a Half Men
Производство: США, 2003
Жанр: комедия
Продолжительность: ~ 21 мин
Перевод: многоголосый закадровый MTV + НТВ
Режиссёр: James Burrows
Сценарий: Чак Лорелл, Ли Аронсон, Марк Робертс, Дон Фостер, Джим Патерсон.
Субтитры: Английские
В ролях:
Чарли Шин (Charlie Sheen), Джон Крайер (Jon Cryer), Энгус Ти Джонс (Angus T. Jones), Мэрин Хинкл (Marin Hinkle), Кончата Ферелл (Conchata Ferrell)

Описание:
«Два с половиной человека» (”Two and a half men”) - это американский ситком, премьера которого состоялась на телеканале CBS в понедельник, 22 сентября 2003 года. Главные роли в сериале исполняют Чарли Шин, Джон Крайер и Энгус Т. Джонс.
Сюжет развивается вокруг Чарли Харпера (Чарли Шин), веселого гуляки, зарабатывающего себе на хлеб написанием рекламных мелодий. Чарли живет в пляжном домике в Малибу, ездит на дорогих машинах и играючи соблазяет самых красивых женщин Лос-Анджелеса.
Однако, его беззаботное течение его жизни внезапно нарушается появлением младшего брата Алана (Джон Крайер). Жена Алана, Джудит (Мэрин Хайнкл), выгоняет его из дома и ему приходится переехать к брату. В нагрузку к младшему брату прилагается его сын Джейк (Энгус Т. Джонс), не слишком умный и весьма упитанный десятилетний парнишка, тратящий большую часть своего свободного времени на еду, сон, телевизор и видеоигры.
В доме Чарли также регулярно появляются мать Братьев Харперов, Эвелин (Холланд Тэйлор) - эгоцентричная особа, которую сыновья обычно ассоциируют с дьяволом, - и соседка Роуз, с которой Чарли однажды имел глупость переспать, и которая теперь его преследует.
Кроме того, нельзя не отметить еще одну женщину, имеющую огромное влияние на Чарли Харпера, - его обаятельную домохозяйку Берту (Кончата Ферелл), без саркастических комментариев которой этот ситком бы осиротел.
Качество: WEB-DLRip
Формат: avi
Видео: 720x400 (1.82:1), 23.976 fps, XviD build 41 ~1600 kbps avg, 0.189 bit/pixel
Аудио Rus: AC3; 48000Hz; 2ch; 192 kbps [закадровый перевод MTV] Студия Кравец
Аудио Rus: AC3; 48000Hz; 2ch; 192 kbps [закадровый перевод НТВ]
Аудио Eng: MPEG Audio Layer 3 48000Hz stereo 192Kbps

1. Пилот (Pilot)
2. Большие хлопающие подонки (Big Flappy Bastards)
3. Езжай на закат пока не достигнешь ворот ада (Go East On Sunset Until You Reach The Gates Of Hell)
4. Раз я не могу написать мою песенку про шоколад, пойду вздремну (If I Can’t Write My Chocolate Song, I’m Going To Take A Nap)
5. Последняя вещь, которой ты хотела бы обзавестись, это горб (Last Thing You Want Is To Wind Up With A Hump)
6. А ты звонил капитану летучих обезьян? (Did You Check With The Captain Of The Flying Monkeys?)
7. Если определить сложно, значит они фальшивые (If They Do Go Either Way, They’re Usually Fake)
8. Двадцать пять маленьких детей без опохмелки (Twenty-Five Little Pre-Pubers Without A Snootful)
9. Фаза один завершена (Phase One, Complete)
10. Счастливого дня благодарения (Merry Thanksgiving)
11. Алан Харпер, ведущий хиропрактик (Alan Harper, Frontier Chiropractor)
12. Camel с фильтром и феромоны (Camel Filters And Pheromones)
13. Сара любит маленького Алана (Sarah Like Puny Alan)
14. Я не могу позволить себе гиен (I Can’t Afford Hyenas)
15. Первый раунд с горячей сумасшедшей цыпочкой (Round One To The Hot Crazy Chick)
16. Это была слюна, Алан (That Was Saliva, Alan)
17. Мы ели гамбургеры в шляпах (Ate The Hamburgers, Wearing The Hats)
18. Старый огонь с новым фитилем (An Old Flame With A New Wick)
19. Я помню гардероб, я просто не помню тебя (I Remember The Coat Room, I Just Don’t Remember You)
20. Эй, я могу писать снаружи в темноте (Hey, I Can Pee Outside In The Dark)
21. Не нюхать и не вукать (No Sniffing, No Wowing)
22. У моего доктора есть кукла-корова (My Doctor Has A Cow Puppet)
23. Как буйвол (Just Like Buffalo)
24. Чувствуешь мой палец? (Can You Feel My Finger?)
Video
ID : 0
Format : MPEG-4 Visual
Format profile : Advanced Simple@L4
Format settings, BVOP : Yes
Format settings, QPel : No
Format settings, GMC : No warppoints
Format settings, Matrix : Default (H.263)
Muxing mode : Packed bitstream
Codec ID : XVID
Codec ID/Hint : XviD
Duration : 22mn 57s
Bit rate : 1 579 Kbps
Width : 720 pixels
Height : 400 pixels
Display aspect ratio : 16:9
Frame rate : 23.976 fps
Color space : YUV
Chroma subsampling : 4:2:0
Bit depth : 8 bits
Scan type : Progressive
Bits/(Pixel*Frame) : 0.229
Stream size : 259 MiB (73%)
Writing library : XviD 1.2.1 (UTC 2008-12-04)
Audio #1
ID : 1
Format : AC-3
Format/Info : Audio Coding 3
Mode extension : CM (complete main)
Codec ID : 2000
Duration : 22mn 57s
Bit rate mode : Constant
Bit rate : 192 Kbps
Channel(s) : 2 channels
Channel positions : Front: L R
Sampling rate : 48.0 KHz
Bit depth : 16 bits
Stream size : 31.5 MiB (9%)
Alignment : Split accross interleaves
Interleave, duration : 42 ms (1.00 video frame)
Interleave, preload duration : 500 ms
Title : MTV
Audio #2
ID : 2
Format : AC-3
Format/Info : Audio Coding 3
Mode extension : CM (complete main)
Codec ID : 2000
Duration : 22mn 57s
Bit rate mode : Constant
Bit rate : 192 Kbps
Channel(s) : 2 channels
Channel positions : Front: L R
Sampling rate : 48.0 KHz
Bit depth : 16 bits
Stream size : 31.5 MiB (9%)
Alignment : Split accross interleaves
Interleave, duration : 42 ms (1.00 video frame)
Interleave, preload duration : 500 ms
Title : NTV
Audio #3
ID : 3
Format : MPEG Audio
Format version : Version 1
Format profile : Layer 3
Mode : Joint stereo
Mode extension : MS Stereo
Codec ID : 55
Codec ID/Hint : MP3
Duration : 22mn 57s
Bit rate mode : Variable
Bit rate : 192 Kbps
Channel(s) : 2 channels
Sampling rate : 44.1 KHz
Stream size : 30.3 MiB (9%)
Alignment : Aligned on interleaves
Interleave, duration : 26 ms (0.63 video frame)
Interleave, preload duration : 103 ms
Title : ENG
Writing library : LAME3.98
Encoding settings : -m j -V 4 -q 3 -lowpass 18.6 --abr 192
При каждом добавлении создаётся новый торрент. Чтобы начать докачку новой серии, пользователям необходимо сделать следующее:
(1) остановить скачивание,
(2) удалить старый торрент у себя из клиента (старые серии удалять не надо),
(3) скачать новый торрент и запустить его у себя в клиенте вместо старого, при этом указать клиенту путь в старую папку куда и должно происходить скачивание новых серий.
Ваш клиент при этом должен произвести хеширование (проверку) старой папки (если не производит сам - помогите ему сделать это), и будет докачивать только те серии которых у вас ещё нет. Старые серии при этом не удаляются, а продолжают раздаваться!
Eсли вы уже удалили старые серии, то предотвратить повторную закачку старых серий можно, отжав галочку в соответствующих местах при запуске нового торрента. По возможности, желательно не удалять старые серии как можно дольше чтобы релизёр не столько продолжал раздавать старые серии, а смог сконцентрироваться на новых.



Скачать Два.с.половиной.человека.Two.and.a.Half.Men.(Сезон.1.серии.1-24.(24)).(Гари.Хэлворсон.Памэла.Фримен.Роб.Шиллер).[2003.г.Ситком.Комедия.WEB-DL.rip].torrent без регистрации
Золото ЗОЛОТАЯ РАЗДАЧА! СКАЧАННОЕ НЕ ЗАСЧИТЫВАЕТСЯ! Золото
Дата: Зарегистрирован   [ Тип: внутренний ] Как тут cкачать?
MAGNET ссылка
MAGNET ссылка


Скачать .torrent

43 KB

Статус: проверено DHT
Скачан: торрент - 251 раз, раздача полностью - 153 раз
Размер: 7,6 GB
Оценка:  5 (Голосов: 1)
Поблагодарили: 2
Поделиться ссылкой на эту раздачу с друзьями:
В контактеFacebookОдноклассникиTwitterLivejournalМой МирLiveinternet
 

 
Показать сообщения:    


Вы не можете начинать темы
Вы не можете отвечать на сообщения
Вы не можете редактировать свои сообщения
Вы не можете удалять свои сообщения
Вы не можете голосовать в опросах
Вы не можете прикреплять файлы к сообщениям
Вы можете скачивать файлы