Loading...
Error

Скачать Правосудие Декстера / Dexter (Сезон 5) (Маркос Сига, Тим Хантер, Кит Гордон) [2010 г., драма, детектив, криминал, триллер, HDTVRip] [LostFilm] торрент без регистрации

 
Статистика раздачи
Размер:  5,1 GB   |    Скачан:  2741 раз
Сидов:  1  [  0 KB/s  ]  
 
Автор Сообщение

Lexus

[] 


Декстер / Dexter


Год выпуска: 2010
Страна: США [color=gray](Showtime)
[/color]
Жанр: Драма / Детектив / Криминал / Триллер
Продолжительность: ~ 00:56:00
Перевод: Профессиональный (многоголосый, закадровый) LostFilm
Режиссер: Маркос Сига, Тим Хантер, Кит Гордон

В ролях:
Майкл Холл, Джули Бенц, Дженифер Карпентер, Лорен Велез, Дэвид Зайяс, Джеймс Ремар и другие...

Описание:
Я — Декстер. Декстер Морган. Я работаю судмедэкспертом в полиции Майами. Я не понимаю любви, мне безразличен секс, и у меня нет чувств. А еще я серийный убийца.
Мой отец был полицейским, и прекрасно обучил меня прятать улики. Обычным гражданам не стоит меня бояться, я убиваю только преступников, подонков, до которых почему-либо не смогла или не захотела добраться полиция. Я убиваю их, аккуратно распиливаю на части, и избавляюсь от трупов. Убийство для меня — творческий акт, искусство.
Но однажды… В Майами появляется некто, равный мне. Даже превзошедший меня. Сумевший меня заинтересовать. Предложивший мне своего рода товарищеское состязание. Кто этот загадочный и неуловимый «икс»..?

Качество: HDTVRip
Формат: AVI
Видео кодек: XviD
Аудио кодек: MP3
Видео: 704x400 (1.76:1), 23.976 fps, XviD build 50, 985 kbps avg, 0.15 bit/pixel
Аудио: 48 kHz, MPEG Layer 3, 2 ch, 192.00 kbps avg

Релиз:
Перевод: Vekshin, Lostfilm, Z23
Редактор: Relicit
Озвучка: Студия "Кравец"


| Сэмпл | IMDb | КиноПоиск

Моя вина (My Bad)
Привет, бандит (Hello Bandit)
Практически идеальный (Practically Perfect)
Красавица и Чудовище (Beauty and the Beast)
Первая кровь (First Blood)
Всё стало явным (Everything Is Illuminated)
Circle Us
Бери! (Take It!)
Тяжело быть подростком (Teenage Wasteland)
Начало (In The Beginning)
Сбежать на сухогрузе (Hop A Freighter)
Крупное дело (The Big One)

[/font]
Video
ID : 0
Format : MPEG-4 Visual
Format profile : Advanced Simple@L5
Format settings, BVOP : Yes
Format settings, QPel : Yes
Format settings, GMC : 3 warppoints
Format settings, Matrix : Default (H.263)
Codec ID : XVID
Codec ID/Hint : XviD
Duration : 53mn 34s
Bit rate : 986 Kbps
Width : 704 pixels
Height : 400 pixels
Display aspect ratio : 16:9
Frame rate : 23.976 fps
Resolution : 8 bits
Colorimetry : 4:2:0
Scan type : Progressive
Bits/(Pixel*Frame) : 0.146
Stream size : 378 MiB (83%)
Writing library : XviD 1.2.1 (UTC 2008-12-04)
Audio
ID : 1
Format : MPEG Audio
Format version : Version 1
Format profile : Layer 3
Format_Settings_Mode : Joint stereo
Codec ID : 55
Codec ID/Hint : MP3
Duration : 53mn 34s
Bit rate mode : Constant
Bit rate : 192 Kbps
Channel(s) : 2 channels
Sampling rate : 48.0 KHz
Stream size : 73.6 MiB (16%)
Alignment : Aligned on interleaves
Interleave, duration : 24 ms (0.58 video frame)
Interleave, preload duration : 480 ms
Внимание! Раздача ведётся путём добавления новых серий; при каждом добавлении создётся новый торрент. Чтобы начать докачку новой серии, пользователям необходимо сделать следующее:
(1) остановить скачивание,
(2) удалить старый торрент у себя из клиента (старые серии удалять не надо),
(3) скачать новый торрент и запустить его у себя в клиенте вместо старого, при этом указать клиенту путь в старую папку куда и должно происходить скачивание новых серий.
Ваш клиент при этом должен произвести хеширование (проверку) старой папки (если не производит сам - помогите ему сделать это), и будет докачивать только те серии которых у вас ещё нет. Старые серии при этом не удаляются, а продолжают раздаваться!
Eсли вы уже удалили старые серии, то предотвратить повторную закачку старых серий можно, отжав галочку в соответсвующих местах при запуске нового торрента.


[align=center]





Скачать Правосудие.Декстера.Dexter.(Сезон.5).(Маркос.Сига.Тим.Хантер.Кит.Гордон).[2010.г.драма.детектив.криминал.триллер.HDTVRip].[LostFilm].torrent без регистрации
Золото ЗОЛОТАЯ РАЗДАЧА! СКАЧАННОЕ НЕ ЗАСЧИТЫВАЕТСЯ! Золото
Дата: Зарегистрирован   [ Тип: внутренний ] Как тут cкачать?
MAGNET ссылка
MAGNET ссылка


Скачать .torrent

27 KB

Статус: проверено DHT
Скачан: торрент - 2741 раз, раздача полностью - 683 раз
Размер: 5,1 GB
Оценка:  4,5 (Голосов: 2)
Поблагодарили: 5
Поделиться ссылкой на эту раздачу с друзьями:
В контактеFacebookОдноклассникиTwitterLivejournalМой МирLiveinternet
 

 
Показать сообщения:    


Вы не можете начинать темы
Вы не можете отвечать на сообщения
Вы не можете редактировать свои сообщения
Вы не можете удалять свои сообщения
Вы не можете голосовать в опросах
Вы не можете прикреплять файлы к сообщениям
Вы можете скачивать файлы