Loading...
Error

Скачать Герои / Heroes (1 сезон, 1-23 серии) (Жаннот Шварц) [2007 г., Фантастика, DVDRip] [CTC] торрент без регистрации

 
Статистика раздачи
Размер:  9,07 GB   |    Скачан:  338 раз
Сидов:  1  [  0 KB/s  ]  
 
Автор Сообщение

Lexus

[] 

Герои / Heroes (1 сезон: 1-23 серии)
Год выпуска: 2007
Страна: США (NBC Universal Television)
Жанр: Фантастика
Продолжительность: 23 х ~ 40мин
Перевод: Профессиональный (дублированный) (СТС) +оригинальная английская дорожка
Cубтитры: Да (вшитые на японскую речь)
Режиссер: Greg Beeman /Грег Биман/, Paul A. Edwards /Пол А. Эдвардс/, Allan Arkush /Аллан Аркуш/, Jeannot Szwarc /Жаннот Шварц/
В ролях: Santiago Cabrera /Сантьяго Кабрера/, Tawny Cypress /Тони Сайпресс/, Noah Gray-Cabey /Ной Грэй-Кэби/, Greg Grunberg /Грег Гранберг/, Ali Larter /Эли Лартер/, Masi Oka /Маси Ока/, Hayden Panettiere /Хайден Панеттьери/, Adrian Pasdar /Адриан Пасдар/, Sendhil Ramamurthy /Сендхил Рамамурти/, Milo Ventimiglia /Майло Вентимилья/, Zachary Quinto /Закари Куинто/, Jack Coleman /Джек Коулмэн/
Описание: Юный мечтатель пытается убедить своего брата-политика, что он может летать. Старшеклассница понимает, что она бессмертна. Стриптизерша, которая еле сводит концы с концами, пытаясь в одиночку воспитать сына, обнаруживает, что ее отражение в зеркале имеет секрет. Беглецу от правосудия все время удается сбивать с толку власти, которые дважды были не в состоянии удержать его. Талантливый художник-наркоман может нарисовать будущее. Полицейский-неудачник слышит мысли людей, что наводит его на след неуловимого серийного убийцы. В Японии молодой человек обнаруживает способ остановить время силой воли. Все они случайно узнают о том, что обладают суперсилой, и пытаются для начала как-то с ней совладать, ну, а потом уж и применить ее во благо человечества. Жить с таким даром совсем не просто, тем более что за ними охотятся представители криминала, которым необходимо получить образец ДНК этих людей. Но и герои не дремлют. Их миссия — спасти мир ...
Качество видео: DVDRip
Формат видео: AVI
Видео кодек: XviD
Аудио кодек: MP3
Видео: MPEG-4 ~ 624x352 ~ 23.976 fps ~ 1013 Kbps
Аудио: 1# 48.0 KHz ~ MP3 ~ 2 ch ~ 128 Kbps
->
Format : AVI
Format/Info : Audio Video Interleave
File size : 399 MiB
Duration : 43mn 31s
Overall bit rate : 1 283 Kbps
Writing application : VirtualDubModRus 1.5.10.2 (build 2540/release)
Writing library : VirtualDubMod build 2540/release
Video
ID : 0
Format : MPEG-4 Visual
Format profile : Advanced Simple@L5
Format settings, BVOP : Yes
Format settings, QPel : No
Format settings, GMC : No warppoints
Format settings, Matrix : Default (H.263)
Muxing mode : Packed bitstream
Codec ID : XVID
Codec ID/Hint : XviD
Duration : 43mn 31s
Bit rate : 1 013 Kbps
Width : 624 pixels
Height : 352 pixels
Display aspect ratio : 16:9
Frame rate : 23.976 fps
Color space : YUV
Chroma subsampling : 4:2:0
Bit depth : 8 bits
Scan type : Progressive
Bits/(Pixel*Frame) : 0.192
Stream size : 315 MiB (79%)
Writing library : XviD 1.1.2 (UTC 2006-11-01)
Audio #1
ID : 1
Format : MPEG Audio
Format version : Version 1
Format profile : Layer 3
Mode : Joint stereo
Mode extension : MS Stereo
Codec ID : 55
Codec ID/Hint : MP3
Duration : 43mn 31s
Bit rate mode : Constant
Bit rate : 128 Kbps
Channel(s) : 2 channels
Sampling rate : 48.0 KHz
Stream size : 39.8 MiB (10%)
Alignment : Aligned on interleaves
Interleave, duration : 42 ms (1.00 video frame)
Interleave, preload duration : 504 ms
Audio #2
ID : 2
Format : MPEG Audio
Format version : Version 1
Format profile : Layer 3
Mode : Joint stereo
Mode extension : MS Stereo
Codec ID : 55
Codec ID/Hint : MP3
Duration : 43mn 31s
Bit rate mode : Constant
Bit rate : 128 Kbps
Channel(s) : 2 channels
Sampling rate : 48.0 KHz
Stream size : 39.8 MiB (10%)
Alignment : Aligned on interleaves
Interleave, duration : 42 ms (1.00 video frame)
Interleave, preload duration : 504 ms



Скачать Герои.Heroes.(1.сезон.1-23.серии).(Жаннот.Шварц).[2007.г.Фантастика.DVDRip].[CTC].torrent без регистрации
Золото ЗОЛОТАЯ РАЗДАЧА! СКАЧАННОЕ НЕ ЗАСЧИТЫВАЕТСЯ! Золото
Дата: Зарегистрирован   [ Тип: внутренний ] Как тут cкачать?
MAGNET ссылка
MAGNET ссылка


Скачать .torrent

47 KB

Статус: проверено DHT
Скачан: торрент - 338 раз, раздача полностью - 256 раз
Размер: 9,07 GB
Оценка:  5 (Голосов: 1)
Поблагодарили: 6
Поделиться ссылкой на эту раздачу с друзьями:
В контактеFacebookОдноклассникиTwitterLivejournalМой МирLiveinternet
 

 
Показать сообщения:    


Вы не можете начинать темы
Вы не можете отвечать на сообщения
Вы не можете редактировать свои сообщения
Вы не можете удалять свои сообщения
Вы не можете голосовать в опросах
Вы не можете прикреплять файлы к сообщениям
Вы можете скачивать файлы