Loading...
Error

Скачать Плащ / The Cape (1-1х10 из 10) (Деран Сарафян) [2011 г., драма, WEB-DLRip] [MVO (LostFilm)] торрент без регистрации

 
Статистика раздачи
Размер:  7,2 GB   |    Скачан:  184 раза
Сидов:  1  [  0 KB/s  ]  
 
Автор Сообщение

Lexus

[] 

Плащ / The Cape


Год выпуска: 2011
Страна: США

Жанр: драма
Продолжительность: ~ 45 мин
Перевод: Профессиональный многоголосый закадровый(LostFilm)
Субтитры: нет
Режиссёр: Деран Сарафян
В ролях:
Дэвид Лайонс, Саммер Глау, Дженнифер Феррин, Райан Уиннот, Джеймс Фрейн, Кит Дэвид, Дорриан Миссик
Описание:
Винс Фарадей – честный коп в коррумпированном полицейском подразделении. Неожиданно он обнаруживает, что его ложно обвинили в серии убийств, а сам он числится погибшим. Он вынужден скрываться, оставив жену Дану и сына Трипа. Переполненный желанием воссоединиться со своей семьей и сражаться с преступными силами, заполонившими Палм Сити, Фарадей воплощает в жизнь образ любимого супергероя его сына, The Cape, и теперь лично будет вершить суд и расправу.

Качество: WEB-DLRip
Формат: AVI

Видео кодек: XviD
Аудио кодек: AC3
Видео: 720x400 (1.80:1), 23.976 fps, XviD build 50 ~1997 kbps avg, 0.29 bit/pixel
Аудио Rus: 48 kHz, AC3 Dolby Digital, 2/0 (L,R) ch, ~192 kbps
Аудио Eng: 48 kHz, AC3 Dolby Digital, 2/0 (L,R) ch, ~192 kbps

Озвучка: Студия "LostFilm"
Рип: ЛП

Пилот (Pilot)
Карта Таро (Tarot)
Козмо (Kozmo)
Скейлз (Scales)
Удача (Dice)
Очкарик и Хикс (Goggles and Hicks)
Труп (часть 1) (The Lich: Part 1)
Труп (часть 2) (The Lich: Part 2)
Рэйзер (Razer)
Эндшпиль (Endgame)

General

Complete name : H:\Фтп 3\Сериалы\The Cape Season 1 LostFilm\The.Cape.s01e01.rus.eng.avi
Format : AVI
Format/Info : Audio Video Interleave
File size : 741 MiB
Duration : 43mn 13s
Overall bit rate : 2 398 Kbps
Writing application : VirtualDubMod 1.5.10.2 (build 2540/release)
Writing library : VirtualDubMod build 2540/release
Video

ID : 0
Format : MPEG-4 Visual
Format profile : Advanced Simple@L5
Format settings, BVOP : Yes
Format settings, QPel : No
Format settings, GMC : No warppoints
Format settings, Matrix : Default (MPEG)
Codec ID : XVID
Codec ID/Hint : XviD
Duration : 43mn 13s
Bit rate : 2 000 Kbps
Width : 720 pixels
Height : 400 pixels
Display aspect ratio : 16:9
Frame rate : 23.976 fps
Color space : YUV
Chroma subsampling : 4:2:0
Bit depth : 8 bits
Scan type : Progressive
Bits/(Pixel*Frame) : 0.290
Stream size : 618 MiB (83%)
Writing library : XviD 1.2.1 (UTC 2008-12-04)
Audio #1
ID : 1
Format : AC-3
Format/Info : Audio Coding 3
Mode extension : CM (complete main)
Codec ID : 2000
Duration : 43mn 13s
Bit rate mode : Constant
Bit rate : 192 Kbps
Channel(s) : 2 channels
Channel positions : Front: L R
Sampling rate : 48.0 KHz
Bit depth : 16 bits
Stream size : 59.4 MiB (8%)
Alignment : Split accross interleaves
Interleave, duration : 42 ms (1.00 video frame)
Interleave, preload duration : 500 ms
Audio #2
ID : 2
Format : AC-3
Format/Info : Audio Coding 3
Mode extension : CM (complete main)
Codec ID : 2000
Duration : 43mn 13s
Bit rate mode : Constant
Bit rate : 192 Kbps
Channel(s) : 2 channels
Channel positions : Front: L R
Sampling rate : 48.0 KHz
Bit depth : 16 bits
Stream size : 59.4 MiB (8%)
Alignment : Split accross interleaves
Interleave, duration : 42 ms (1.00 video frame)
Interleave, preload duration : 500 ms
Внимание! Раздача ведётся путём добавления новых серий; при каждом добавлении создётся новый торрент. Чтобы начать докачку новой серии, пользователям необходимо сделать следующее: (1) остановить скачивание, (2) удалить старый торрент у себя из клиента (старые серии удалять не надо), (3) скачать новый торрент и запустить его у себя в клиенте вместо старого, при этом указать клиенту путь в старую папку куда и должно происходить скачивание новых серий.
Ваш клиент при этом должен произвести хеширование (проверку) старой папки (если не производит сам - помогите ему сделать это), и будет докачивать только те серии которых у вас ещё нет. Старые серии при этом не удаляются, а продолжают раздаваться!
Eсли вы уже удалили старые серии, то предотвратить повторную закачку старых серий можно, отжав галочку в соответсвующих местах при запуске нового торрента.



Скачать Плащ.The.Cape.(1-1х10.из.10).(Деран.Сарафян).[2011.г.драма.WEB-DLRip].[MVO.(LostFilm)].torrent без регистрации
Золото ЗОЛОТАЯ РАЗДАЧА! СКАЧАННОЕ НЕ ЗАСЧИТЫВАЕТСЯ! Золото
Дата: Зарегистрирован   [ Тип: внутренний ] Как тут cкачать?
MAGNET ссылка
MAGNET ссылка


Скачать .torrent

37 KB

Статус: проверено DHT
Скачан: торрент - 184 раз, раздача полностью - 34 раз
Размер: 7,2 GB
Оценка:  - (Голосов: 0)
Поблагодарили: 3
Поделиться ссылкой на эту раздачу с друзьями:
В контактеFacebookОдноклассникиTwitterLivejournalМой МирLiveinternet
 

 
Показать сообщения:    


Вы не можете начинать темы
Вы не можете отвечать на сообщения
Вы не можете редактировать свои сообщения
Вы не можете удалять свои сообщения
Вы не можете голосовать в опросах
Вы не можете прикреплять файлы к сообщениям
Вы можете скачивать файлы