Loading...
Error

Скачать Плащ / The Cape (1х1-10 из 10) (Деран Сарафян) [2011 г., драма, WEB-DLRip] [MVO (LostFilm)] торрент без регистрации

 
Статистика раздачи
Размер:  3,63 GB   |    Скачан:  199 раз
Сидов:  1  [  0 KB/s  ]  
 
Автор Сообщение

Lexus

[] 

Плащ / The Cape


Год выпуска: 2011
Страна: США
Жанр: драма
Продолжительность: ~ 00:44:00
Перевод : Профессиональный (многоголосый закадровый) (LostFilm.tv)
Русские субтитры: нет
Количество серий: 10 из 10
Режиссёр: Деран Сарафян

В ролях: Дэвид Лайонс, Саммер Глау, Дженнифер Феррин, Райан Уиннот, Джеймс Фрейн, Кит Дэвид, Дорриан Миссик и др.

Описание: Винс Фарадей – честный коп в коррумпированном полицейском подразделении. Неожиданно он обнаруживает, что его ложно обвинили в серии убийств, а сам он числится погибшим. Он вынужден скрываться, оставив жену Дану и сына Трипа. Переполненный желанием воссоединиться со своей семьей и сражаться с преступными силами, заполонившими Палм Сити, Фарадей воплощает в жизнь образ любимого супергероя его сына, The Cape, и теперь лично будет вершить суд и расправу.
Качество: WEBRip

Формат: *.m4v
Видео кодек: H.264
аудио кодек: ААС
Разрешение: 960x544
Другие параметры видео: 1500kbps, 23.976 fps, Aspect Ratio 1.78:1
Аудио: 128kpbs 48khz 2 channels
Вшитая обложка: есть
Доп. теги (режиссёр, актёры и т.д.): прописаны
Телешоу/видеоклип : прописан
Серия/сезон: прописан
Общее
Полное имя : D:\Video\1pod\The Cape Season 1\The.Cape.S01E01.HD.rus.LostFilm.TV-1.m4v
Формат : MPEG-4
Профиль формата : Base Media / Version 2
Идентификатор кодека : mp42
Размер файла : 414 Мбайт
Продолжительность : 43 м.
Общий поток : 1334 Кбит/сек
Название фильма : Эпизод 1 "Пилот"
Альбом : The Cape
Исполнитель : The Cape
Жанр : Drama
Дата кодирования : 2011.01.9
Дата пометки : UTC 2011-01-14 16:47:12
Программа кодирования : HandBrake 0.9.5 2011010300
Обложка : Yes
iTunEXTC : us-tv|TV-14|500|
iTunMOVI : <?xml version="1.0" encoding="UTF-8"?> / <!DOCTYPE plist PUBLIC "-//Apple//DTD PLIST 1.0//EN" "http://www.apple.com/DTDs/PropertyList-1.0.dtd"> / <plist version="1.0"> / <dict> / <key>cast</key> / <array> / <dict> / <key>name</key> / <string>Дэвид Лайонс</string> / </dict> / <dict> / <key>name</key> / <string>Саммер Глау</string> / </dict> / <dict> / <key>name</key> / <string>Дженнифер Феррин</string> / </dict> / <dict> / <key>name</key> / <string>Райан Уиннот</string> / </dict> / <dict> / <key>name</key> / <string>Джеймс Фрейн</string> / </dict> / <dict> / <key>name</key> / <string>Кит Дэвид</string> / </dict> / <dict> / <key>name</key> / <string>Дорриан Миссик и др.</string> / </dict> / </array> / <key>directors</key> / <array> / <dict> / <key>name</key> / <string>Деран Сарафян</string> / </dict> / </array> / <key>producers</key> / <array> / <dict> / <key>name</key> / <string>Гэйл Берман</string> / </dict> / <dict> / <key>name</key> / <string>Деран Сарафян</string> / </dict> / <dict> / <key>name</key> / <string>Крэйг Титли</string> / </dict> / </array> / <key>screenwriters</key> / <array> / <dict> / <key>name</key> / <string>Том Вилер</string> / </dict> / <dict> / <key>name</key> / <string>Крэйг Титли</string> / </dict> / <dict> / <key>name</key> / <string>Билл Вилер</string> / </dict> / </array> / </dict> / </plist>
tvsh : The Cape
tvsn : 1
tves : 1
desc : Винс Фарадей – честный коп в коррумпированном полицейском подразделении. Неожиданно он обнаруживает, что его ложно обвинили в серии убийств, а сам он числится погибшим. Он вынужден скрываться, оставив жену Дану и сына Трипа. Переполненный желанием воссоединиться со своей семьей и сражаться с преступными силами, заполонившими Палм Сити, Фарадей воплощает в жизнь образ любимого супергероя его сына, The Cape, и теперь лично будет вершить суд и расправу.
stik : 10
Видео
Идентификатор : 1
Формат : AVC
Формат/Информация : Advanced Video Codec
Профиль формата : High@L3.1
Параметр CABAC формата : Да
Параметр ReFrames формата : 4 кадры
Параметры GOP формата : M=2, N=4
Идентификатор кодека : avc1
Идентификатор кодека/Информация : Advanced Video Coding
Продолжительность : 43 м.
Вид битрейта : Переменный
Битрейт : 1199 Кбит/сек
Ширина : 960 пикс.
Высота : 544 пикс.
Соотношение сторон : 16:9
Соотношение сторон в оригинале : 16:9
Режим частоты кадров : Переменный
Частота кадров : 23,976 кадр/сек
Минимальная частота кадров : 23,810 кадр/сек
Максимальная частота кадров : 29,098 кадр/сек
Цветовое пространство : YUV
Подвыборка цветности : 4:2:0
Битовая глубина : 8 бит
Тип развёртки : Прогрессивная
Бит/(Пиксели*Кадры) : 0.096
Размер потока : 372 Мбайт (90%)
Библиотека кодирования : x264 core 112
Настройки программы : cabac=1 / ref=3 / deblock=1:0:0 / analyse=0x3:0x113 / me=hex / subme=7 / psy=1 / psy_rd=1.00:0.00 / mixed_ref=1 / me_range=16 / chroma_me=1 / trellis=1 / 8x8dct=1 / cqm=0 / deadzone=21,11 / fast_pskip=1 / chroma_qp_offset=-2 / threads=3 / sliced_threads=0 / nr=0 / decimate=1 / interlaced=0 / constrained_intra=0 / bframes=3 / b_pyramid=2 / b_adapt=1 / b_bias=0 / direct=1 / weightb=1 / open_gop=0 / weightp=2 / keyint=300 / keyint_min=29 / scenecut=40 / intra_refresh=0 / rc_lookahead=40 / rc=crf / mbtree=1 / crf=20.0 / qcomp=0.60 / qpmin=3 / qpmax=51 / qpstep=4 / ip_ratio=1.40 / aq=1:1.00
Дата кодирования : UTC 2011-01-14 08:31:02
Дата пометки : UTC 2011-01-14 09:17:09
Основные цвета : BT.709-5, BT.1361, IEC 61966-2-4, SMPTE RP177
Характеристики трансфера : BT.709-5, BT.1361
Коэффициенты матрицы : BT.709-5, BT.1361, IEC 61966-2-4 709, SMPTE RP177
Аудио
Идентификатор : 2
Формат : AAC
Формат/Информация : Advanced Audio Codec
Профиль формата : LC
Идентификатор кодека : 40
Продолжительность : 43 м.
Вид битрейта : Переменный
Битрейт : 128 Кбит/сек
Максимальный битрейт : 215 Кбит/сек
Канал(ы) : 2 канала(ов)
Расположение каналов : Front: L R
Частота : 48,0 КГц
Метод сжатия : С потерями
Размер потока : 39,7 Мбайт (10%)
Язык : Russian
Дата кодирования : UTC 2011-01-14 08:31:02
Дата пометки : UTC 2011-01-14 09:17:08



Скачать Плащ.The.Cape.(1х1-10.из.10).(Деран.Сарафян).[2011.г.драма.WEB-DLRip].[MVO.(LostFilm)].torrent без регистрации
Золото ЗОЛОТАЯ РАЗДАЧА! СКАЧАННОЕ НЕ ЗАСЧИТЫВАЕТСЯ! Золото
Дата: Зарегистрирован   [ Тип: внутренний ] Как тут cкачать?
MAGNET ссылка
MAGNET ссылка


Скачать .torrent

19 KB

Статус: проверено DHT
Скачан: торрент - 199 раз, раздача полностью - 23 раз
Размер: 3,63 GB
Оценка:  5 (Голосов: 1)
Поблагодарили: 4
Поделиться ссылкой на эту раздачу с друзьями:
В контактеFacebookОдноклассникиTwitterLivejournalМой МирLiveinternet
 

 
Показать сообщения:    


Вы не можете начинать темы
Вы не можете отвечать на сообщения
Вы не можете редактировать свои сообщения
Вы не можете удалять свои сообщения
Вы не можете голосовать в опросах
Вы не можете прикреплять файлы к сообщениям
Вы можете скачивать файлы