Loading...
Error

Скачать Семья Сопрано/ The Sopranos / Сезон: 6 / Серии: 21 (Дэвид Чейз, Тим Вэн Пэттен, Алан Тэйлор и др.) [2006-2007, Драма, HDRip] [sub] торрент без регистрации

 
Статистика раздачи
Размер:  15,6 GB   |    Скачан:  500 раз

Полного источника не было: 8 дней

 
Автор Сообщение

Lexus

[] 

Клан Сопрано / Семья Сопрано / The Sopranos
6 сезон

Психоаналитика - это ж чисто еврейский рэкет.

Год выпуска: 2006-2007
Страна:США
Жанр: Драма, криминал
Продолжительность: 21 серия по 50 минут
Перевод: Любительский одноголосый закадровый
Русские субтитры: есть
Создатель сериала: Дэвид Чейз
Режиссёр: Дэвид Чейз, Тим Вэн Пэттен, Алан Тэйлор и др.
Перевод: SOLDLUCK
В ролях: Джеймс Гэндолфини, Эди Фалко, Джеми-Линн Сиглер, Майкл Империоли, Лоррейн Бракко, Тони Сирико, Роберт Айлер, Стивен Ван Зандт, Доминик Кианезэ, Эйда Туртурро
Описание: Повседневная жизнь современного Крестного отца: его мысли - стремительны, действия - решительны, а юмор - черен.
«Сопрано» признан «современной мафиозной классикой»!

Качество: HDRip
Формат: AVI
Видео кодек: XviD
Аудио кодек: MP3
Видеопоток: 704x400 (1.76:1), 23.976 fps, XviD build 50 ~1594 kbps avg, 0.24 bit/pixel
Аудиопоток №1: 48 kHz, MPEG Layer 3, 2 ch, ~128.00 kbps avg |Авторский одноголосый закадровый перевод, SOLDLUCK|
Аудиопоток №2: 48 kHz, MPEG Layer 3, 2 ch, ~128.00 kbps avg |Оригинальный английский звук|
Субтитры: Русские (перевод SOLDLUCK)
General
Complete name : C:\работа\SOPRANOS_SEASON6_SOLDLUCK2\The.Sopranos.S06E17_SOLDLUCK.avi
Format : AVI
Format/Info : Audio Video Interleave
File size : 756 MiB
Duration : 55mn 37s
Overall bit rate : 1 899 Kbps
Writing application : VirtualDubMod 1.5.10.2 (build 2540/release)
Writing library : VirtualDubMod build 2540/release
Video
ID : 0
Format : MPEG-4 Visual
Format profile : AdvancedSimple@L5
Format settings, BVOP : Yes
Format settings, QPel : No
Format settings, GMC : No warppoints
Format settings, Matrix : Custom
Codec ID : XVID
Codec ID/Hint : XviD
Duration : 55mn 37s
Bit rate : 1 518 Kbps
Width : 704 pixels
Height : 400 pixels
Display aspect ratio : 16:9
Frame rate : 23.976 fps
Resolution : 24 bits
Colorimetry : 4:2:0
Scan type : Progressive
Bits/(Pixel*Frame) : 0.225
Stream size : 604 MiB (80%)
Writing library : XviD 1.2.1 (UTC 2008-12-04)
Audio #1
ID : 1
Format : MPEG Audio
Format version : Version 1
Format profile : Layer 3
Codec ID : 55
Codec ID/Hint : MP3
Duration : 55mn 37s
Bit rate mode : Constant
Bit rate : 256 Kbps
Channel(s) : 2 channels
Sampling rate : 44.1 KHz
Resolution : 16 bits
Stream size : 102 MiB (13%)
Alignment : Split accross interleaves
Interleave, duration : 42 ms (1.00 video frame)
Interleave, preload duration : 500 ms
Audio #2
ID : 2
Format : MPEG Audio
Format version : Version 1
Format profile : Layer 3
Format settings, Mode : Joint stereo / MS Stereo
Codec ID : 55
Codec ID/Hint : MP3
Duration : 55mn 37s
Bit rate mode : Variable
Bit rate : 108 Kbps
Nominal bit rate : 128 Kbps
Channel(s) : 2 channels
Sampling rate : 48.0 KHz
Resolution : 16 bits
Stream size : 43.1 MiB (6%)
Alignment : Aligned on interleaves
Interleave, duration : 24 ms (0.58 video frame)
Interleave, preload duration : 169 ms
Writing library : LAME3.98r
Encoding settings : -m j -V 4 -q 2 -lowpass 17 --abr 128



Скачать Семья.Сопрано.The.Sopranos.Сезон.6.Серии.21.(Дэвид.Чейз.Тим.Вэн.Пэттен.Алан.Тэйлор.и.др.).[2006-2007.Драма.HDRip].[sub].torrent без регистрации
Золото ЗОЛОТАЯ РАЗДАЧА! СКАЧАННОЕ НЕ ЗАСЧИТЫВАЕТСЯ! Золото
Дата: Зарегистрирован   [ Тип: внутренний ] Как тут cкачать?
MAGNET ссылка
MAGNET ссылка


Скачать .torrent

82 KB

Статус: ? недооформлено
Скачан: торрент - 500 раз, раздача полностью - 317 раз
Размер: 15,6 GB
Оценка:  - (Голосов: 0)
Поблагодарили: 0
Поделиться ссылкой на эту раздачу с друзьями:
В контактеFacebookОдноклассникиTwitterLivejournalМой МирLiveinternet
 

 
Показать сообщения:    


Вы не можете начинать темы
Вы не можете отвечать на сообщения
Вы не можете редактировать свои сообщения
Вы не можете удалять свои сообщения
Вы не можете голосовать в опросах
Вы не можете прикреплять файлы к сообщениям
Вы можете скачивать файлы