Loading...
Error

Скачать Ромео и Джульетта / Romeo and Juliet (Франко Дзеффирелли) [1968, Драма, DVDRip] [AVC] [kolan8] торрент без регистрации

 
Статистика раздачи
Размер:  2,36 GB   |    Скачан:  148 раз
Сидов:  1  [  0 KB/s  ]  
 
Автор Сообщение

Marsianka

[] 

Информация о фильме
Название: Ромео и Джульетта
Оригинальное название: Romeo and Juliet
Год выхода: 1968
Жанр: Драма
Режиссер: Франко Дзеффирелли
В ролях: Леонард Уайтинг, Оливия Хасси, Джон МакЭнери, Майло О'Ши, Пэт Хейвуд, Роберт Стивенс, Майкл Йорк, Брюс Робинсон, Пол Хардуик, Наташа Парри, Антонио Пьерфедеричи, Эсмеральда Русполи, Роберто Бисакко, Рой Холдер, Кит Скиннер, Дайсон Ловелл, Ричард Уорвик, Роберто Антонелли, Карло Палмуччи.

О фильме:
Великолепная, классическая экранизация одноименной трагедии Шекспира. Чудесная музыка Нино Рота.



Страна: Великобритания, Италия
Студия: BHE Film, Verona Produzione, Dino De Laurentiis Cinematografica
Продолжительность: 02:12:33
Перевод: дублированный, одноголосый закадровый

Файл
Кодек: H.264
Качество: DVDRip-AVC
Видео: 704x576@1001x576, 1952 kbps avg, 25 fps
Звук:
RU: 48 kHz, AC3 Dolby Digital, 2/0 (L,R) ch, ~192.00 kbps avg (Дубляж)
EN: 48 kHz, AC3 Dolby Digital, 2/0 (L,R) ch, ~192.00 kbps avg
RU: 48 kHz, AC3 Dolby Digital, 2/0 (L,R) ch, ~160.00 kbps avg (Одноголосый закадровый)
Субтитры: русские, английские (srt)

Сэмпл: Скачать

General
Complete name : rj1968a.mkv
Format : Matroska
File size : 2.36 GiB
Duration : 2h 12mn
Overall bit rate : 2 546 Kbps
Encoded date : UTC 2011-05-13 10:10:57
Writing application : mkvmerge v3.0.0 ('Hang up your Hang-Ups') built on Dec 12 2009 15:20:35
Writing library : libebml v0.7.9 + libmatroska v0.8.1

Video
ID : 1
Format : AVC
Format/Info : Advanced Video Codec
Format profile : High@L4.1
Format settings, CABAC : Yes
Format settings, ReFrames : 4 frames
Muxing mode : Container profile=Unknown@4.1
Codec ID : V_MPEG4/ISO/AVC
Duration : 2h 12mn
Bit rate : 1 952 Kbps
Width : 704 pixels
Height : 576 pixels
Display aspect ratio : 16:9
Frame rate : 25.000 fps
Resolution : 8 bits
Colorimetry : 4:2:0
Scan type : Progressive
Bits/(Pixel*Frame) : 0.193
Stream size : 1.81 GiB (77%)
Title : Romeo and Juliet
Writing library : x264 core 113 r1881kMod cd53fa4

Audio #1
ID : 2
Format : AC-3
Format/Info : Audio Coding 3
Codec ID : A_AC3
Duration : 2h 12mn
Bit rate mode : Constant
Bit rate : 192 Kbps
Channel(s) : 2 channels
Channel positions : L R
Sampling rate : 48.0 KHz
Stream size : 182 MiB (8%)
Title : Dub
Language : Russian

Audio #2
ID : 3
Format : AC-3
Format/Info : Audio Coding 3
Codec ID : A_AC3
Duration : 2h 12mn
Bit rate mode : Constant
Bit rate : 192 Kbps
Channel(s) : 2 channels
Channel positions : L R
Sampling rate : 48.0 KHz
Stream size : 182 MiB (8%)
Title : En
Language : English

Audio #3
ID : 4
Format : AC-3
Format/Info : Audio Coding 3
Codec ID : A_AC3
Duration : 2h 12mn
Bit rate mode : Constant
Bit rate : 160 Kbps
Channel(s) : 2 channels
Channel positions : L R
Sampling rate : 48.0 KHz
Stream size : 152 MiB (6%)
Title : Kupernik
Language : Russian

Text #1
ID : 5
Format : UTF-8
Codec ID : S_TEXT/UTF8
Codec ID/Info : UTF-8 Plain Text
Title : Dub
Language : Russian

Text #2
ID : 6
Format : UTF-8
Codec ID : S_TEXT/UTF8
Codec ID/Info : UTF-8 Plain Text
Title : Ru
Language : Russian

Text #3
ID : 7
Format : UTF-8
Codec ID : S_TEXT/UTF8
Codec ID/Info : UTF-8 Plain Text
Title : Kupernik
Language : Russian

Text #4
ID : 8
Format : UTF-8
Codec ID : S_TEXT/UTF8
Codec ID/Info : UTF-8 Plain Text
Title : Pasternak
Language : Russian

Text #5
ID : 9
Format : UTF-8
Codec ID : S_TEXT/UTF8
Codec ID/Info : UTF-8 Plain Text
Title : En
Language : English

Menu
00:00:00.000 : ru:Начало - en:Houses Of Dignity
00:08:06.240 : ru:Часы тоски - en:Sad Hours
00:11:50.280 : ru:Желание матери - en:A Mother's Desire
00:16:16.320 : ru:Плутни королевы Мэб - en:Talk Of Dreams
00:21:53.320 : ru:Сияет красота ее в ночи - en:Beauty
00:29:28.280 : ru:От ненависти к любви - en:Love Sprung From Hate
00:37:14.480 : ru:Спокойной ночи - en:Sweet Goodnight
00:49:35.520 : ru:Согласие монаха - en:Friar Consents
00:54:39.200 : ru:Встреча с кормилицей - en:"Commend me to thy lady!"
01:02:06.680 : ru:Нетерпение - en:Impatience
01:07:59.440 : ru:Жизнь за жизнь - en:A Life For A Life
01:24:55.520 : ru:Плата за кровь - en:Price Of Blood
01:30:48.040 : ru:То жаворонок был - en:The Lark Sings
01:36:40.920 : ru:Сватовство Париса - en:So Worthy A Gentleman
01:44:09.040 : ru:Возьми вот эту склянку - en:Desperate Deception
01:50:53.560 : ru:Пью за тебя, любовь - en:Lovers' Farewell
02:07:19.160 : ru:Печальный мир - en:A Gloomy Peace
02:10:02.720 : ru:Конец - en:End Credits



Скачать Ромео.и.Джульетта.Romeo.and.Juliet.(Франко.Дзеффирелли).[1968.Драма.DVDRip].[AVC].[kolan8].torrent без регистрации
Золото ЗОЛОТАЯ РАЗДАЧА! СКАЧАННОЕ НЕ ЗАСЧИТЫВАЕТСЯ! Золото
Дата: Зарегистрирован   [ Тип: внутренний ] Как тут cкачать?
MAGNET ссылка
MAGNET ссылка


Скачать .torrent

24 KB

Статус: проверено DHT
Скачан: торрент - 148 раз, раздача полностью - 46 раз
Размер: 2,36 GB
Оценка:  - (Голосов: 0)
Поблагодарили: 0
Поделиться ссылкой на эту раздачу с друзьями:
В контактеFacebookОдноклассникиTwitterLivejournalМой МирLiveinternet
 

 
Показать сообщения:    


Вы не можете начинать темы
Вы не можете отвечать на сообщения
Вы не можете редактировать свои сообщения
Вы не можете удалять свои сообщения
Вы не можете голосовать в опросах
Вы не можете прикреплять файлы к сообщениям
Вы можете скачивать файлы