Loading...
Error

Скачать Ромео и Джульетта / Romeo and Juliet (Франко Дзеффирелли) [1968, Драма, DVDRip] [kolan8] торрент без регистрации

 
Статистика раздачи
Размер:  1,46 GB   |    Скачан:  193 раза
Сидов:  1  [  0 KB/s  ]  
 
Автор Сообщение

Marsianka

[] 

Информация о фильме
Название: Ромео и Джульетта
Оригинальное название: Romeo and Juliet
Год выхода: 1968
Жанр: Драма
Режиссер: Франко Дзеффирелли
В ролях: Леонард Уайтинг, Оливия Хасси, Джон МакЭнери, Майло О'Ши, Пэт Хейвуд, Роберт Стивенс, Майкл Йорк, Брюс Робинсон, Пол Хардуик, Наташа Парри, Антонио Пьерфедеричи, Эсмеральда Русполи, Роберто Бисакко, Рой Холдер, Кит Скиннер, Дайсон Ловелл, Ричард Уорвик, Роберто Антонелли, Карло Палмуччи.

О фильме:
Великолепная, классическая экранизация одноименной трагедии Шекспира. Чудесная музыка Нино Рота.



Страна: Великобритания, Италия
Студия: BHE Film, Verona Produzione, Dino De Laurentiis Cinematografica
Продолжительность: 02:12:33
Перевод: дублированный

Файл
Кодек: XviD
Качество: DVDRip
Видео: 720x416, 1376 kbps, 25 fps
Звук: 48 kHz, AC3 Dolby Digital, 2/0 (L,R) ch, ~192.00 kbps avg
Субтитры: русские (srt)

Сэмпл: Скачать

General
Complete name : rj1968.avi
Format : AVI
Format/Info : Audio Video Interleave
File size : 1.46 GiB
Duration : 2h 12mn
Overall bit rate : 1 578 Kbps
Writing library : VirtualDub build 32817/release

Video
ID : 0
Format : MPEG-4 Visual
Format profile : Simple@L3
Format settings, BVOP : No
Format settings, QPel : No
Format settings, GMC : No warppoints
Format settings, Matrix : Default (H.263)
Codec ID : DX50
Codec ID/Hint : DivX 5
Duration : 2h 12mn
Bit rate : 1 376 Kbps
Width : 720 pixels
Height : 416 pixels
Display aspect ratio : 16:9
Frame rate : 25.000 fps
Resolution : 8 bits
Colorimetry : 4:2:0
Scan type : Progressive
Bits/(Pixel*Frame) : 0.184
Stream size : 1.27 GiB (87%)
Writing library : XviD 1.2.1 (UTC 2008-12-04)

Audio
ID : 1
Format : AC-3
Format/Info : Audio Coding 3
Codec ID : 2000
Duration : 2h 12mn
Bit rate mode : Constant
Bit rate : 192 Kbps
Channel(s) : 2 channels
Channel positions : L R
Sampling rate : 48.0 KHz
Stream size : 182 MiB (12%)
Alignment : Aligned on interleaves
Interleave, duration : 40 ms (1.00 video frame)
Interleave, preload duration : 512 ms



Скачать Ромео.и.Джульетта.Romeo.and.Juliet.(Франко.Дзеффирелли).[1968.Драма.DVDRip].[kolan8].torrent без регистрации
Золото ЗОЛОТАЯ РАЗДАЧА! СКАЧАННОЕ НЕ ЗАСЧИТЫВАЕТСЯ! Золото
Дата: Зарегистрирован   [ Тип: внутренний ] Как тут cкачать?
MAGNET ссылка
MAGNET ссылка


Скачать .torrent

2 KB

Статус: проверено DHT
Скачан: торрент - 193 раз, раздача полностью - 121 раз
Размер: 1,46 GB
Оценка:  5 (Голосов: 1)
Поблагодарили: 2
Поделиться ссылкой на эту раздачу с друзьями:
В контактеFacebookОдноклассникиTwitterLivejournalМой МирLiveinternet
 

 
Показать сообщения:    


Вы не можете начинать темы
Вы не можете отвечать на сообщения
Вы не можете редактировать свои сообщения
Вы не можете удалять свои сообщения
Вы не можете голосовать в опросах
Вы не можете прикреплять файлы к сообщениям
Вы можете скачивать файлы