Loading...
Error

Скачать Болота / The Glades (сезоны 01-04) (Гари А. Рэндолл и др.) [2010-2013, детектив, драма, WEB-DLRip] [Dub (ТВ3)] торрент без регистрации

Статистика раздачи
Размер:  31,35 GB   |    Скачан:  164 раза
Сидов:  4  [  0 KB/s  ]  

 
 
 
Автор Сообщение

МихаНЕзатор

[] 

Болота / Пляжный коп / The Glades


Страна: США
Производство: Grand Productions Inc., Fox Television Studios, Innuendo Productions
Год выпуска: 2010-2013
Жанр: боевик, драма, криминал, детектив
Режиссеры: Гари А. Рэндолл, Эрик Ланёвилль, Келли Макин
Авторы сценария: Клифтон Кэмпбелл, Том Гарригас, Луис Джонсон

В ролях: Мэтт Пассмор, Киле Санчес, Карлос Гомес, Джордан Уолл, Мишель Херд, Юрайа Шелтон, Анхель Луис Эрнандес, Алексис Уиндсор

Описание: Сериал рассказывает о Джиме Лонгворте, детективе из Чикаго. После ошибочных обвинений в интрижке с женой капитана, он переехал в маленький городок во Флориде, где гольф и солнце в изобилии, а преступность, казалось бы, сведена к минимуму. Однако жизнь в городке не такая прекрасная, как виделось с первого взгляда...

Дата премьеры (мир): 11 июля 2010



Релиз от: tеko

Сезоны: 1-4
Продолжительность: 49х ~00:47:00
Перевод: Профессиональный (полное дублирование) | ТВ3
Субтитры: нет

Качество: WEB-DLRip
Формат: AVI
Видео кодек: XviD
Аудио кодек: АС3
Видео: 704x400 (16:9), 25.000 fps, XviD build 73 ~2 000 kbps avg
Аудио: 48.0 kHz, AC3 Dolby Digital, 2/0 (L,R) ch, ~192 kbps

АНОНСЫ ПОПУЛЯРНЫХ РАЗДАЧ


Торрент обновлён, добавлен 2-4-й сезоны!
General
Complete name : s01e01_Pilot.avi
Format : AVI
Format/Info : Audio Video Interleave
File size : 732 MiB
Duration : 46mn 29s
Overall bit rate : 2 201 Kbps
Writing application : VirtualDubMod 1.5.10.3 | (build 2550/release)
Writing library : VirtualDubMod build 2550/release

Video
ID : 0
Format : MPEG-4 Visual
Format profile : Advanced Simple@L5
Format settings, BVOP : 2
Format settings, QPel : No
Format settings, GMC : No warppoints
Format settings, Matrix : Custom
Codec ID : XVID
Codec ID/Hint : XviD
Duration : 46mn 29s
Bit rate : 2 000 Kbps
Width : 704 pixels
Height : 400 pixels
Display aspect ratio : 16:9
Frame rate : 25.000 fps
Color space : YUV
Chroma subsampling : 4:2:0
Bit depth : 8 bits
Scan type : Progressive
Compression mode : Lossy
Bits/(Pixel*Frame) : 0.284
Stream size : 665 MiB (91%)
Writing library : XviD 73

Audio
ID : 1
Format : AC-3
Format/Info : Audio Coding 3
Mode extension : CM (complete main)
Format settings, Endianness : Big
Codec ID : 2000
Duration : 46mn 29s
Bit rate mode : Constant
Bit rate : 192 Kbps
Channel(s) : 2 channels
Channel positions : Front: L R
Sampling rate : 48.0 KHz
Frame rate : 31.250 fps (1536 spf)
Compression mode : Lossy
Stream size : 63.8 MiB (9%)
Alignment : Split accross interleaves
Interleave, duration : 40 ms (1.00 video frame)
Interleave, preload duratio : 500 ms




Скачать Болота.The.Glades.(сезоны.01-04).(Гари.А.Рэндолл.и.др.).[2010-2013.детектив.драма.WEB-DLRip].[Dub.(ТВ3)].torrent без регистрации
Золото ЗОЛОТАЯ РАЗДАЧА! СКАЧАННОЕ НЕ ЗАСЧИТЫВАЕТСЯ! Золото
Дата: Зарегистрирован   [ Тип: внешний ] Как тут cкачать?
MAGNET ссылка
MAGNET ссылка


Скачать .torrent

161 KB

Статус: проверено DHT
Скачан: торрент - 164 раз, раздача полностью - 33 раз
Размер: 31,35 GB
Оценка:  5 (Голосов: 1)
Поблагодарили: 2
Поделиться ссылкой на эту раздачу с друзьями:
В контактеFacebookОдноклассникиTwitterLivejournalМой МирLiveinternet
 

 

uraivan1976

[] 

Спасибо! ax
 
Показать сообщения:    


Вы не можете начинать темы
Вы не можете отвечать на сообщения
Вы не можете редактировать свои сообщения
Вы не можете удалять свои сообщения
Вы не можете голосовать в опросах
Вы не можете прикреплять файлы к сообщениям
Вы можете скачивать файлы