Loading...
Error

Скачать Асы в небе / Aces High (Джек Голд / Jack Gold) [1976, боевик, драма, военный, DVDRip] торрент без регистрации

 
Статистика раздачи
Размер:  1,66 GB   |    Скачан:  164 раза
Сидов:  1  [  0 KB/s  ]  
 
Автор Сообщение

Marsianka

[] 

Информация о фильме
Название: Асы в небе
Оригинальное название: Aces High
Год выхода: 1976
Жанр: боевик, драма, военный
Режиссер: Джек Голд / Jack Gold
В ролях: Малкольм МакДауэлл /Malcolm McDowell/, Кристофер Пламмер /Christopher Plummer/, Саймон Уорд /Simon Ward/, Питер Фёрт /Peter Firth/, Дэвид Вуд /David Wood/, Джон Гилгуд /John Gielgud/, Тревор Ховард /Trevor Howard/, Ричард Джонсон /Richard Johnson/, Рэй Милланд /Ray Milland/, Кристофер Блейк /Christopher Blake/

О фильме:
1916 год. Молодой пилот Королевского воздушного корпуса Великобритании лейтенант Стивен Крофт прибывает на аэродром во Франции. Наблюдая за действиями ветеранов и постепенно набираясь опыта, он начинает избавляться от своих иллюзий о рыцарском характере войны в воздухе


Страна: Великобритания
Продолжительность: 01:48:40
Перевод: Авторский (одноголосый) [Леонид Машинский] / Профессиональный (двухголосый) [НТВ] / Оригинал [английский]

Файл
Кодек: XviD / AC-3
Качество: DVDRip
Видео: XviD, 656x368 (16:9), 25.000 fps, 1 595 Kbps (0.264 bit/pixel)
Звук:
Аудио #1: AC-3, 48.0 KHz, 1 ch, 192 Kbps, CBR - Авторский (одноголосый) [Леонид Машинский]
Аудио #2: AC-3, 48.0 KHz, 1 ch, 192 Kbps, CBR - Профессиональный (двухголосый) [НТВ]
Аудио #3: AC-3, 48.0 KHz, 1 ch, 192 Kbps, CBR - Оригинал [английский]
General
Complete name : F:ACES HIGH 1976Aces.High.1976.XviD.DVDRip[Rus_Eng].avi
Format : AVI
Format/Info : Audio Video Interleave
File size : 1.66 GiB
Duration : 1h 48mn
Overall bit rate : 2 190 Kbps
Writing application : VirtualDubModRus 1.5.10.2 (build 2542/release)
Writing library : VirtualDubMod build 2542/release

Video
ID : 0
Format : MPEG-4 Visual
Format profile : Advanced Simple@L5
Format settings, BVOP : 1
Format settings, QPel : No
Format settings, GMC : No warppoints
Format settings, Matrix : Default (MPEG)
Muxing mode : Packed bitstream
Codec ID : XVID
Codec ID/Hint : XviD
Duration : 1h 48mn
Bit rate : 1 595 Kbps
Width : 656 pixels
Height : 368 pixels
Display aspect ratio : 16:9
Frame rate : 25.000 fps
Color space : YUV
Chroma subsampling : 4:2:0
Bit depth : 8 bits
Scan type : Progressive
Compression mode : Lossy
Bits/(Pixel*Frame) : 0.264
Stream size : 1.21 GiB (73%)
Writing library : XviD 1.2.0.dev47 (UTC 2006-11-01)

Audio #1
ID : 1
Format : AC-3
Format/Info : Audio Coding 3
Mode extension : CM (complete main)
Codec ID : 2000
Duration : 1h 48mn
Bit rate mode : Constant
Bit rate : 192 Kbps
Channel(s) : 1 channel
Channel positions : Front: C
Sampling rate : 48.0 KHz
Bit depth : 16 bits
Compression mode : Lossy
Delay relative to video : 24ms
Stream size : 149 MiB (9%)
Alignment : Split accross interleaves
Interleave, duration : 40 ms (1.00 video frame)
Interleave, preload duration : 500 ms

Audio #2
ID : 2
Format : AC-3
Format/Info : Audio Coding 3
Mode extension : CM (complete main)
Codec ID : 2000
Duration : 1h 48mn
Bit rate mode : Constant
Bit rate : 192 Kbps
Channel(s) : 1 channel
Channel positions : Front: C
Sampling rate : 48.0 KHz
Bit depth : 16 bits
Compression mode : Lossy
Stream size : 149 MiB (9%)
Alignment : Aligned on interleaves
Interleave, duration : 40 ms (1.00 video frame)
Interleave, preload duration : 512 ms

Audio #3
ID : 3
Format : AC-3
Format/Info : Audio Coding 3
Mode extension : CM (complete main)
Codec ID : 2000
Duration : 1h 48mn
Bit rate mode : Constant
Bit rate : 192 Kbps
Channel(s) : 1 channel
Channel positions : Front: C
Sampling rate : 48.0 KHz
Bit depth : 16 bits
Compression mode : Lossy
Stream size : 149 MiB (9%)
Alignment : Aligned on interleaves
Interleave, duration : 40 ms (1.00 video frame)
Interleave, preload duration : 512 ms



Скачать Асы.в.небе.Aces.High.(Джек.Голд.Jack.Gold).[1976.боевик.драма.военный.DVDRip].torrent без регистрации
Золото ЗОЛОТАЯ РАЗДАЧА! СКАЧАННОЕ НЕ ЗАСЧИТЫВАЕТСЯ! Золото
Дата: Зарегистрирован   [ Тип: внутренний ] Как тут cкачать?
MAGNET ссылка
MAGNET ссылка


Скачать .torrent

17 KB

Статус: проверено DHT
Скачан: торрент - 164 раз, раздача полностью - 28 раз
Размер: 1,66 GB
Оценка:  - (Голосов: 0)
Поблагодарили: 0
Поделиться ссылкой на эту раздачу с друзьями:
В контактеFacebookОдноклассникиTwitterLivejournalМой МирLiveinternet
 

 
Показать сообщения:    


Вы не можете начинать темы
Вы не можете отвечать на сообщения
Вы не можете редактировать свои сообщения
Вы не можете удалять свои сообщения
Вы не можете голосовать в опросах
Вы не можете прикреплять файлы к сообщениям
Вы можете скачивать файлы