Loading...
Error

Скачать Борджиа / Los Borgia (Антонио Хернандез) [2006, биография, DVDRip] торрент без регистрации

 
Статистика раздачи
Размер:  746 MB   |    Скачан:  135 раз
Сидов:  1  [  0 KB/s  ]  
 
Автор Сообщение

МихаНЕзатор

[] 

Информация о фильме
Название: Борджиа
Оригинальное название: Los Borgia
Год выхода: 2006
Жанр: биография
Режиссер: Антонио Хернандез / Antonio Hern‘ndez
В ролях: Роберто Альварес, Элой Асорин, Линда Батиста, Марко Боччи, Антонио Дечент, Francesca Della Ragione, Роберто Энрикес, Фабио Гросси, Антонио Хернандез, Льюис Омар

О фильме:
Борджиа! Имя, которое стало синонимом всех пороков. 1492-й год поднимает семейство Борджиа на недосягаемую высоту: сложные интриги и многочисленные подкупы возводят кардинала Родриго на папский престол.

Он мечтает о победах, крупных завоеваниях и власти над всей Италией, что побуждает его принять имя Александра VI в честь величайшего завоевателя древних времен. Все его интересы и стремления сводятся к тому, чтобы сделать своих детей могущественными людьми.


Страна: Испания
Продолжительность: 02:21:18
Перевод: Профессиональный (многоголосый, закадровый) | Лицензия

Файл
Кодек: XviD / MP3
Качество: DVDRip [Исх. DVD9]
Видео: XviD, 640x288 (2.222), 25.000 fps, 619 Kbps (0.134 bit/pixel)
Звук: MP3, 44.1 KHz, 2 ch, 112 Kbps, CBR (Russian)
General
Complete name : E:Los.Borgia_[Rutor.org].avi
Format : AVI
Format/Info : Audio Video Interleave
File size : 746 MiB
Duration : 2h 21mn
Overall bit rate : 738 Kbps
Writing application : VirtualDubMod 1.5.4.1 (build 2178/release)
Writing library : VirtualDubMod build 2178/release

Video
ID : 0
Format : MPEG-4 Visual
Format profile : Advanced Simple@L5
Format settings, BVOP : 1
Format settings, QPel : No
Format settings, GMC : No warppoints
Format settings, Matrix : Custom
Codec ID : XVID
Codec ID/Hint : XviD
Duration : 2h 21mn
Bit rate : 619 Kbps
Width : 640 pixels
Height : 288 pixels
Display aspect ratio : 2.222
Frame rate : 25.000 fps
Color space : YUV
Chroma subsampling : 4:2:0
Bit depth : 8 bits
Scan type : Progressive
Compression mode : Lossy
Bits/(Pixel*Frame) : 0.134
Stream size : 625 MiB (84%)
Writing library : XviD 64

Audio
ID : 1
Format : MPEG Audio
Format version : Version 1
Format profile : Layer 3
Mode : Joint stereo
Mode extension : MS Stereo
Codec ID : 55
Codec ID/Hint : MP3
Duration : 2h 21mn
Bit rate mode : Constant
Bit rate : 112 Kbps
Channel(s) : 2 channels
Sampling rate : 44.1 KHz
Compression mode : Lossy
Stream size : 113 MiB (15%)
Alignment : Split accross interleaves
Interleave, duration : 80 ms (2.00 video frames)
Interleave, preload duration : 500 ms
Writing library : LAME3.98r
Encoding settings : -m j -V 4 -q 2 -lowpass 15.6 -b 112
Language : Russian



Скачать Борджиа.Los.Borgia.(Антонио.Хернандез).[2006.биография.DVDRip].torrent без регистрации
Золото ЗОЛОТАЯ РАЗДАЧА! СКАЧАННОЕ НЕ ЗАСЧИТЫВАЕТСЯ! Золото
Дата: Зарегистрирован   [ Тип: внутренний ] Как тут cкачать?
MAGNET ссылка
MAGNET ссылка


Скачать .torrent

15 KB

Статус: проверено DHT
Скачан: торрент - 135 раз, раздача полностью - 50 раз
Размер: 746 MB
Оценка:  - (Голосов: 0)
Поблагодарили: 0
Поделиться ссылкой на эту раздачу с друзьями:
В контактеFacebookОдноклассникиTwitterLivejournalМой МирLiveinternet
 

 
Показать сообщения:    


Вы не можете начинать темы
Вы не можете отвечать на сообщения
Вы не можете редактировать свои сообщения
Вы не можете удалять свои сообщения
Вы не можете голосовать в опросах
Вы не можете прикреплять файлы к сообщениям
Вы можете скачивать файлы