Loading...
Error

Скачать Бросок кобры / G.I. Joe: The Rise of Cobra (Стивен Соммерс) [2009, фантастика, боевик, приключения, BDRip-AVC] [DUB] торрент без регистрации

 
Статистика раздачи
Размер:  1,45 GB   |    Скачан:  238 раз
Сидов:  1  [  0 KB/s  ]  
 
Автор Сообщение

МихаНЕзатор

[] 

Бросок кобры / G.I. Joe: The Rise of Cobra (2009) BDRip-AVC

Страна: США
Жанр: фантастика, боевик, приключения
Год выпуска: 2009
Продолжительность: 01:57:59

Перевод: Профессиональный (дублированный)
Cубтитры: нет
Режиссер: Стивен Соммерс / Stephen Sommers

В ролях: Чаннинг Татум, Марлон Уайанс, Рэй Парк, Сиенна Миллер, Рейчел Николс, Джозеф Гордон-Левитт, Деннис Куэйд, Джонатан Прайс, Бён Хон Ли, Каролина Куркова

Описание: Базирующееся в Европе высокотехнологичное международное военное подразделение, известное как G.I. Joe, бросает вызов зловещей корпорации, руководимой знаменитым оружейным бароном.



СЭМПЛ

Качество видео: BDRip-AVC(Исх. BDRemux)
Формат видео: MKV

Видео: 1024x432 (2.35:1), 23.976 fps, AVC, ~1316 kbps, 0.124 bits/pixel
Аудио: 48.0 KHz, AC3, 6 ch, 448 kbps

General
Unique ID : 180843727083469421465726457464507916635 (0x880D3C24027CCC0A8254D0722330E15B)
Complete name : L:Brosok kobri.chopper887.mkv
Format : Matroska
File size : 1.45 GiB
Duration : 1h 58mn
Overall bit rate : 1 765 Kbps
Movie name : Brosok kobri.chopper887
Encoded date : UTC 2011-07-14 16:44:19
Writing application : mkvmerge v4.8.0 ('I Got The...') built on May 24 2011 03:12:58
Writing library : libebml v1.2.0 + libmatroska v1.1.0

Video
ID : 1
Format : AVC
Format/Info : Advanced Video Codec
Format profile : High@L4.1
Format settings, CABAC : Yes
Format settings, ReFrames : 8 frames
Codec ID : V_MPEG4/ISO/AVC
Duration : 1h 58mn
Bit rate : 1 316 Kbps
Width : 1 024 pixels
Height : 432 pixels
Display aspect ratio : 2.35:1
Frame rate : 23.976 fps
Color space : YUV
Chroma subsampling : 4:2:0
Bit depth : 8 bits
Scan type : Progressive
Bits/(Pixel*Frame) : 0.124
Stream size : 1.06 GiB (73%)
Title : Brosok kobri.chopper887
Writing library : x264 core 115 r2008 4c552d8
Encoding settings : cabac=1 / ref=8 / deblock=1:-2:-1 / analyse=0x3:0x133 / me=umh / subme=10 / psy=1 / psy_rd=1.00:0.10 / mixed_ref=1 / me_range=32 / chroma_me=1 / trellis=2 / 8x8dct=1 / cqm=0 / deadzone=21,11 / fast_pskip=0 / chroma_qp_offset=-3 / threads=3 / sliced_threads=0 / nr=0 / decimate=1 / interlaced=0 / bluray_compat=0 / constrained_intra=0 / bframes=9 / b_pyramid=2 / b_adapt=2 / b_bias=0 / direct=3 / weightb=1 / open_gop=0 / weightp=2 / keyint=250 / keyint_min=23 / scenecut=40 / intra_refresh=0 / rc_lookahead=80 / rc=2pass / mbtree=1 / bitrate=1316 / ratetol=1.0 / qcomp=0.70 / qpmin=10 / qpmax=51 / qpstep=4 / cplxblur=20.0 / qblur=0.5 / ip_ratio=1.40 / aq=1:1.00
Language : English

Audio
ID : 2
Format : AC-3
Format/Info : Audio Coding 3
Mode extension : CM (complete main)
Codec ID : A_AC3
Duration : 1h 58mn
Bit rate mode : Constant
Bit rate : 448 Kbps
Channel(s) : 6 channels
Channel positions : Front: L C R, Side: L R, LFE
Sampling rate : 48.0 KHz
Bit depth : 16 bits
Compression mode : Lossy
Stream size : 378 MiB (25%)
Title : Дубляж



Скачать Бросок.кобры.G.I.Joe.The.Rise.of.Cobra.(Стивен.Соммерс).[2009.фантастика.боевик.приключения.BDRip-AVC].[DUB].torrent без регистрации
Золото ЗОЛОТАЯ РАЗДАЧА! СКАЧАННОЕ НЕ ЗАСЧИТЫВАЕТСЯ! Золото
Дата: Зарегистрирован   [ Тип: внутренний ] Как тут cкачать?
MAGNET ссылка
MAGNET ссылка


Скачать .torrent

15 KB

Статус: проверено DHT
Скачан: торрент - 238 раз, раздача полностью - 1 раз
Размер: 1,45 GB
Оценка:  5 (Голосов: 3)
Поблагодарили: 5
Поделиться ссылкой на эту раздачу с друзьями:
В контактеFacebookОдноклассникиTwitterLivejournalМой МирLiveinternet
 

 
Показать сообщения:    


Вы не можете начинать темы
Вы не можете отвечать на сообщения
Вы не можете редактировать свои сообщения
Вы не можете удалять свои сообщения
Вы не можете голосовать в опросах
Вы не можете прикреплять файлы к сообщениям
Вы можете скачивать файлы