Loading...
Error

Скачать Крутой форсаж / Mad Bad (Джон Кийс / Jon Keeyes) [2007 г., Боевик, Триллер, DVDRip] торрент без регистрации

 
Статистика раздачи
Размер:  1,46 GB   |    Скачан:  194 раза
Сидов:  1  [  0 KB/s  ]  
 
Автор Сообщение

ПАРАДОКС

[] 

Крутой форсаж / Mad Bad

Год выпуска: 2007
Выпущено: США
Жанр: Боевик, Триллер
Продолжительность: 01:29:45
Перевод: Профессиональный (многоголосый)

Режиссер: Джон Кийс / Jon Keeyes

В ролях: Винсент Риверсайд, Анна Зилински, Дентон Блэйн Эверетт, Лэндон Данинг, Лэндон Дуннинг, Тэрри Гэмбл, Ричард Фолмер

Описание: Выйдя из тюрьмы, Джастин решил круто изменить свою жизнь. Вот только никто не хотел брать на работу бывшего уголовника. Понимая, что честно заработать не удастся, он начал искать новые способы заработка. Старые приятели, промышляющие скупкой краденых, машин предложили ему заняться угоном крутых тачек. Решив, что других вариантов достать бабок не будет, Джастин согласился. Очень скоро он заработал себе репутацию самого ловкого угонщика. Жизнь наладилась, в карманах приятно зашуршала наличность, и все шло просто отлично! Пока однажды Джастин по ошибке не "увел" новенький "Феррари" крутого мафиози, доверху набитый экспортным героином! С этого момента его жизнь превратилась в бесконечную гонку на выживание…

Доп. информация:

General
Complete name : F:Krutoy forsagh.chopper887.avi
Format : AVI
Format/Info : Audio Video Interleave
File size : 1.46 GiB
Duration : 1h 29mn
Overall bit rate : 2 330 Kbps
Writing application : VirtualDubMod 1.5.10.2 (build 2540/release)
Writing library : VirtualDubMod build 2540/release

Video
ID : 0
Format : MPEG-4 Visual
Format profile : Advanced Simple@L5
Format settings, BVOP : Yes
Format settings, QPel : No
Format settings, GMC : No warppoints
Format settings, Matrix : Custom
Muxing mode : Packed bitstream
Codec ID : XVID
Codec ID/Hint : XviD
Duration : 1h 29mn
Bit rate : 2 097 Kbps
Width : 720 pixels
Height : 400 pixels
Display aspect ratio : 16:9
Frame rate : 23.976 fps
Color space : YUV
Chroma subsampling : 4:2:0
Bit depth : 8 bits
Scan type : Progressive
Bits/(Pixel*Frame) : 0.304
Stream size : 1.31 GiB (90%)
Writing library : XviD 1.2.1 (UTC 2008-12-04)

Audio
ID : 1
Format : AC-3
Format/Info : Audio Coding 3
Mode extension : CM (complete main)
Codec ID : 2000
Duration : 1h 29mn
Bit rate mode : Constant
Bit rate : 224 Kbps
Channel(s) : 2 channels
Channel positions : Front: L R
Sampling rate : 48.0 KHz
Stream size : 144 MiB (10%)
Alignment : Split accross interleaves
Interleave, duration : 42 ms (1.00 video frame)
Interleave, preload duration : 500 ms


Качество: DVDRip
Формат: AVI
Видео кодек: XviD
Аудио кодек: AC3
Видео: 720x400 (1.80:1), 23.976 fps, XviD MPEG-4 ~2096 kbps avg, 0.30 bit/pixel
Аудио: 48 kHz, AC3 Dolby Digital, 2/0 (L,R) ch, ~224 kbps









Скачать Крутой.форсаж.Mad.Bad.(Джон.Кийс.Jon.Keeyes).[2007.г.Боевик.Триллер.DVDRip].torrent без регистрации
Золото ЗОЛОТАЯ РАЗДАЧА! СКАЧАННОЕ НЕ ЗАСЧИТЫВАЕТСЯ! Золото
Дата: Зарегистрирован   [ Тип: внутренний ] Как тут cкачать?
MAGNET ссылка
MAGNET ссылка


Скачать .torrent

15 KB

Статус: проверено DHT
Скачан: торрент - 194 раз, раздача полностью - 502 раз
Размер: 1,46 GB
Оценка:  5 (Голосов: 1)
Поблагодарили: 1
Поделиться ссылкой на эту раздачу с друзьями:
В контактеFacebookОдноклассникиTwitterLivejournalМой МирLiveinternet
 

 
Показать сообщения:    


Вы не можете начинать темы
Вы не можете отвечать на сообщения
Вы не можете редактировать свои сообщения
Вы не можете удалять свои сообщения
Вы не можете голосовать в опросах
Вы не можете прикреплять файлы к сообщениям
Вы можете скачивать файлы