Loading...
Error

Скачать Скелеты Железного острова / Hierro (Габе Ибаньес) [2009, триллер, драма, детектив, HDRip] [Лицензия] торрент без регистрации

 
Статистика раздачи
Размер:  742 MB   |    Скачан:  133 раза
Сидов:  1  [  0 KB/s  ]  
 
Автор Сообщение

МихаНЕзатор

[] 

Информация о фильме
Название: Скелеты Железного острова
Оригинальное название: Hierro
Год выхода: 2009
Жанр: триллер, драма, детектив
Режиссер: Габе Ибаньес / Gabe Ib‘Ўez
В ролях: Елена Анайя /Elena Anaya/, Мириам Корреа /Miriam Correa/, Андрес Херрера /Andr™s Herrera/, Хавьер Мейя /Javier Mejќa/, Рэкуэл Сальвадор /Raquel Salvador/, Беа Сегура /Bea Segura/

О фильме:
Мать с сыном отправляются отдыхать на остров Йерро, но неожиданное исчезновение мальчика ставит героиню перед непростым выбором: смириться с утратой или во что бы то ни стало разобраться в случившемся и найти ребенка. Героине придется пройти по тонкой грани между реальностью и миром ужасающих видений, ведущих к безумию. Тонкое хитросплетение судеб, распутав которое можно получить ответы на все вопросы. Все это в испанском психологическом триллере режиссера Габе Ибаньеса.


Страна: Испания
Студия: Madrugada Films, Telecinco Cinema, Roxbury Pictures, AXN, User T-38
Продолжительность: 01:28:49
Перевод: Профессиональный (многоголосый закадровый) | Лицензия

Файл
Кодек: XviD / MP3
Качество: HDRip
Видео: XviD, 672x288 (2.33:1), 24.000 fps, ~1030 kbps, 0.22 bit/pixel
Звук: MP3, 48 kHz, 2 ch, ~128 kbps
General
Complete name : F:Hierro.2009.hdrip_[745]_[teko].avi
Format : AVI
Format/Info : Audio Video Interleave
File size : 742 MiB
Duration : 1h 28mn
Overall bit rate : 1 168 Kbps
Writing application : VirtualDubMod 1.5.10.3 | www.virtualdub-fr.org || (build 2550/release)
Writing library : VirtualDubMod build 2550/release

Video
ID : 0
Format : MPEG-4 Visual
Format profile : Advanced Simple@L5
Format settings, BVOP : 1
Format settings, QPel : No
Format settings, GMC : No warppoints
Format settings, Matrix : Custom
Codec ID : XVID
Codec ID/Hint : XviD
Duration : 1h 28mn
Bit rate : 1 031 Kbps
Width : 672 pixels
Height : 288 pixels
Display aspect ratio : 2.35:1
Frame rate : 24.000 fps
Color space : YUV
Chroma subsampling : 4:2:0
Bit depth : 8 bits
Scan type : Progressive
Compression mode : Lossy
Bits/(Pixel*Frame) : 0.222
Stream size : 655 MiB (88%)
Writing library : XviD 63

Audio
ID : 1
Format : MPEG Audio
Format version : Version 1
Format profile : Layer 3
Codec ID : 55
Codec ID/Hint : MP3
Duration : 1h 28mn
Bit rate mode : Constant
Bit rate : 128 Kbps
Channel(s) : 2 channels
Sampling rate : 48.0 KHz
Compression mode : Lossy
Stream size : 81.3 MiB (11%)
Alignment : Aligned on interleaves
Interleave, duration : 42 ms (1.00 video frame)
Interleave, preload duration : 504 ms
Writing library : LAME3.98r
Encoding settings : -m s -V 4 -q 2 -lowpass 17 -b 128



Скачать Скелеты.Железного.острова.Hierro.(Габе.Ибаньес).[2009.триллер.драма.детектив.HDRip].[Лицензия].torrent без регистрации
Золото ЗОЛОТАЯ РАЗДАЧА! СКАЧАННОЕ НЕ ЗАСЧИТЫВАЕТСЯ! Золото
Дата: Зарегистрирован   [ Тип: внутренний ] Как тут cкачать?
MAGNET ссылка
MAGNET ссылка


Скачать .torrent

15 KB

Статус: проверено DHT
Скачан: торрент - 133 раз, раздача полностью - 69 раз
Размер: 742 MB
Оценка:  - (Голосов: 0)
Поблагодарили: 0
Поделиться ссылкой на эту раздачу с друзьями:
В контактеFacebookОдноклассникиTwitterLivejournalМой МирLiveinternet
 

 
Показать сообщения:    


Вы не можете начинать темы
Вы не можете отвечать на сообщения
Вы не можете редактировать свои сообщения
Вы не можете удалять свои сообщения
Вы не можете голосовать в опросах
Вы не можете прикреплять файлы к сообщениям
Вы можете скачивать файлы