Loading...
Error

Скачать Беги, толстяк, беги / Run Fatboy Run (Дэвид Швиммер / David Schwimmer) [2007 г., Комедия, BDRip-AVC] торрент без регистрации

Статистика раздачи
Размер:  2,18 GB   |    Скачан:  150 раз
Сидов:  1  [  0 KB/s  ]  
 
 
 
Автор Сообщение

onealoner

[] 

Беги, толстяк, беги / Run Fatboy Run




Год выпуска: 2007
Выпущено: США
Жанр: Комедия
Продолжительность: 01:36:05
Перевод: Профессиональный (полное дублирование)

Режиссер: Дэвид Швиммер / David Schwimmer

В ролях:
Саймон Пегг, Тэнди Ньютон, Хэнк Азария, Дилан Моран, Хэриш Патель, Индия Дэ Бьюфорт, Мэттью Фентон

Описание:
Недотепа Дэннис бросает свою возлюбенную (да еще и беременную) у алтаря и через пять лет понимает, насколько большую ошибку он совершил, ведь это была его настоящая любовь. Условием для возвращения девушка ставит не из легких — выиграть марафон по бегу, чтобы доказать, что Дэннис изменился, но сделать это будет непросто в виду лишнего веса и сомнительного отношения к тренировкам.

Качество: BDRip-AVC
Формат: MKV
Видео кодек: XviD
Аудио кодек: AC3
Видео: 1024x432 (2.35:1), 23,976 fps, 2 219 kbps
Аудио:
48 kHz, AC3 Dolby Digital, 3/2 (L,C,R,l,r) + LFE ch, ~448 kbps Rus
48 kHz, AC3 Dolby Digital, 3/2 (L,C,R,l,r) + LFE ch, ~448 kbps Eng
Cубтитры : русские , английские



General
Complete name : F:\Begi Tolstyak Begi.chopper887.mkv
Format : Matroska
File size : 2.18 GiB
Duration : 1h 40mn
Overall bit rate : 3 118 Kbps
Movie name : chopper887
Encoded date : UTC 2010-06-20 12:45:46
Writing application : mkvmerge v3.0.0 ('Hang up your Hang-Ups') built on Dec 12 2009 15:20:35
Writing library : libebml v0.7.9 + libmatroska v0.8.1
Video
ID : 1
Format : AVC
Format/Info : Advanced Video Codec
Format profile : High@L4.1
Format settings, CABAC : Yes
Format settings, ReFrames : 9 frames
Muxing mode : Container profile=Unknown@4.1
Codec ID : V_MPEG4/ISO/AVC
Duration : 1h 40mn
Bit rate : 2 219 Kbps
Width : 1 024 pixels
Height : 432 pixels
Display aspect ratio : 2.35:1
Frame rate : 23.976 fps
Color space : YUV
Chroma subsampling : 4:2:0
Bit depth : 8 bits
Scan type : Progressive
Bits/(Pixel*Frame) : 0.209
Stream size : 1.51 GiB (69%)
Title : Begi.Tolstyak.Begi
Writing library : x264 core 98 r1629 2e81ce1
Encoding settings : cabac=1 / ref=9 / deblock=1:-2:-1 / analyse=0x3:0x133 / me=umh / subme=9 / psy=1 / psy_rd=1.00:0.10 / mixed_ref=1 / me_range=32 / chroma_me=1 / trellis=2 / 8x8dct=1 / cqm=0 / deadzone=21,11 / fast_pskip=0 / chroma_qp_offset=-3 / threads=3 / sliced_threads=0 / nr=0 / decimate=1 / interlaced=0 / constrained_intra=0 / bframes=10 / b_pyramid=2 / b_adapt=2 / b_bias=0 / direct=1 / weightb=1 / weightp=2 / keyint=250 / keyint_min=25 / scenecut=40 / intra_refresh=0 / rc_lookahead=80 / rc=2pass / mbtree=1 / bitrate=2219 / ratetol=1.0 / qcomp=0.60 / qpmin=10 / qpmax=51 / qpstep=4 / cplxblur=20.0 / qblur=0.5 / ip_ratio=1.40 / aq=1:1.10
Language : English
Audio #1
ID : 2
Format : AC-3
Format/Info : Audio Coding 3
Mode extension : CM (complete main)
Codec ID : A_AC3
Duration : 1h 40mn
Bit rate mode : Constant
Bit rate : 448 Kbps
Channel(s) : 6 channels
Channel positions : Front: L C R, Side: L R, LFE
Sampling rate : 48.0 KHz
Video delay : 850ms
Stream size : 321 MiB (14%)
Title : Многоголоска
Audio #2
ID : 3
Format : AC-3
Format/Info : Audio Coding 3
Mode extension : CM (complete main)
Codec ID : A_AC3
Duration : 1h 40mn
Bit rate mode : Constant
Bit rate : 448 Kbps
Channel(s) : 6 channels
Channel positions : Front: L C R, Side: L R, LFE
Sampling rate : 48.0 KHz
Stream size : 321 MiB (14%)
Title : Английский
Text #1
ID : 4
Format : UTF-8
Codec ID : S_TEXT/UTF8
Codec ID/Info : UTF-8 Plain Text
Title : Русские
Text #2
ID : 5
Format : UTF-8
Codec ID : S_TEXT/UTF8
Codec ID/Info : UTF-8 Plain Text
Title : Английские








Скачать Беги.толстяк.беги.Run.Fatboy.Run.(Дэвид.Швиммер.David.Schwimmer).[2007.г.Комедия.BDRip-AVC].torrent без регистрации
Золото ЗОЛОТАЯ РАЗДАЧА! СКАЧАННОЕ НЕ ЗАСЧИТЫВАЕТСЯ! Золото
Дата: Зарегистрирован   [ Тип: внутренний ] Как тут cкачать?
MAGNET ссылка
MAGNET ссылка


Скачать .torrent

11 KB

Статус: проверено DHT
Скачан: торрент - 150 раз, раздача полностью - 105 раз
Размер: 2,18 GB
Оценка:  - (Голосов: 0)
Поблагодарили: 1
Поделиться ссылкой на эту раздачу с друзьями:
В контактеFacebookОдноклассникиTwitterLivejournalМой МирLiveinternet
 

 
Показать сообщения:    


Вы не можете начинать темы
Вы не можете отвечать на сообщения
Вы не можете редактировать свои сообщения
Вы не можете удалять свои сообщения
Вы не можете голосовать в опросах
Вы не можете прикреплять файлы к сообщениям
Вы можете скачивать файлы