Loading...
Error

Скачать Эврика / Eureka (сезон 04 полный) (Майк Рол, Майкл Ланж, Майкл Робисан) [2010, фантастика, комедия, драма, детектив, WEB-DLRip] [LostFilm] торрент без регистрации

 
Статистика раздачи
Размер:  8,35 GB   |    Скачан:  357 раз
Сидов:  1  [  0 KB/s  ]  
 
Автор Сообщение

МихаНЕзатор

[] 

Информация о фильме
Название: Эврика
Оригинальное название: Eureka
Год выхода: 2010
Жанр: фантастика, комедия, драма, детектив
Режиссер: Майк Рол, Майкл Ланж, Майкл Робисан
В ролях: Колин Фергюсон, Нил Грэйстон, Салли Ричардсон, Эрика Серра, Джо Мортон, Джордан Хинсон, Крис Готье, Эд Куинн, Найолл Мэттер, Дебра Фарентино и др.

О фильме:
Поскольку Вторая Мировая Война закончилась уничтожением Хиросимы и Нагасаки, наука и изобретения стали приоритетными во всем мире. Америка чуть не проиграла гонку с атомными бомбами; это не должно повториться.

С помощью Альберта Эйнштейна и других доверенных советников, Президент Гарри С. Труман уполномочил начать заселение удаленной области Тихоокеанского Северо-запада, чтобы сохранить интеллектуальные ценности Америки. Там величайшие умы, вундеркинды, были бы в состоянии жить и работать в благосклонной окружающей среде. Лучшие архитекторы и планировщики были уполномочены построить такое место для этих превосходных гениев, где бы они жили и имели лучшее образование для своих детей, лучшую систему здравоохранения, все для комфортного проживания жизни. Это общество жило бы так же, как все, но с небольшим различием: этот город не обозначен ни на одной карте. О нем никто не знает, кроме Пентагона.

Так появился город Эврика. Но в этом маленьком городе все совсем не так, как в других маленьких городах. Большинство «квантовых прыжков» в науке и технике в течение 50 лет было произведено именно элитными исследователями из Эврики. К сожалению, научные исследования всегда непредсказуемы, и годы экспериментов привели к некоторым побочным явлениям.

От невостребованной любви до профессиональной ревности, от склонности до депрессии, проблемы горожан Эвреки увеличиваются с каждым днем. Но с уникальными талантами населения и безграничными ресурсами, эти провинциальные проблемы могут стать большими проблемами. Именно там, где человеческая непрочность и супернаука сталкиваются, Эврика, начинается



Страна: США
Продолжительность: ~0:45:00
Перевод: Профессиональный (многоголосый закадровый) LostFilm

Файл
Кодек: XviD
Качество: WEB-DLRip 400p
Видео: 720x400 (1.80:1), 23.976 fps, XviD MPEG-4 ~1999 kbps avg, 0.29 bit/pixel
Аудио Rus: 48 kHz, AC3 Dolby Digital, 2/0 (L,R) ch, ~192.00 kbps avg
Аудио Eng: 48 kHz, AC3 Dolby Digital, 2/0 (L,R) ch, ~192.00 kbps avg
Размер серии: ~750 Mb
Субтитры: есть (англ)



1. День основателей (Founder's Day)
2. Новый мир (A New World)
3. Гнев - начало безумия (All the Rage)
4. История с О2 (The Story of O2)
5. Переход (Crossing Over)
6. Мамонстр (Momstrosity)
7. Сердце - не камень (Stoned)
8. Гости из прошлого (The Ex-Files)
9. Мы встретимся вновь (I'll Be Seeing You)
10. Родной городок (O Little Town)
11. Пуск (Liftoff)
12. На бис (Reprise)
13. Мимолетное виденье (Glimpse)
14 В воздухе (Up in the Air)
15 Мегадевчонки (Omega Girls)
16 Про клещей и людей (Of Mites and Men)
17. Битва Титанов (Clash of the Titans)
18. В тот день в космическом лагере (This One Time at Space Camp...)
19. Один маленький шаг (One Small Step)
20. Один гигантский скачок (One Giant Leap)

Видео
Идентификатор : 0
Формат : MPEG-4 Visual
Профиль формата : Advanced Simple@L5
Параметр BVOP формата : 2
Параметр QPel формата : Нет
Параметр GMC формата : Без точки перехода
Параметр матрицы формата : Default (MPEG)
Режим смешивания : Сжатый битовый поток
Идентификатор кодека : XVID
Идентификатор кодека/Подсказка : XviD
Продолжительность : 43 м.
Битрейт : 1999 Кбит/сек
Ширина : 720 пикс.
Высота : 400 пикс.
Соотношение сторон : 16:9
Частота кадров : 23,976 кадр/сек
Цветовое пространство : YUV
Подвыборка цветности : 4:2:0
Битовая глубина : 8 бит
Тип развёртки : Прогрессивная
Метод сжатия : С потерями
Бит/(Пиксели*Кадры) : 0.289
Размер потока : 627 Мбайт (83%)
Библиотека кодирования : XviD 58

Аудио #1
Идентификатор : 1
Формат : AC-3
Формат/Информация : Audio Coding 3
Расширение режима : CM (complete main)
Идентификатор кодека : 2000
Продолжительность : 43 м.
Вид битрейта : Постоянный
Битрейт : 192 Кбит/сек
Канал(ы) : 2 канала(ов)
Расположение каналов : Front: L R
Частота : 48,0 КГц
Битовая глубина : 16 бит
Метод сжатия : С потерями
Размер потока : 60,3 Мбайт (8%)
Выравнивание : Разделение по промежуткам
Продолжительность промежутка : 42 мс. (1,00 видеокадр)
Время предзагрузки промежутка : 500 ms

Аудио #2
Идентификатор : 2
Формат : AC-3
Формат/Информация : Audio Coding 3
Расширение режима : CM (complete main)
Идентификатор кодека : 2000
Продолжительность : 43 м.
Вид битрейта : Постоянный
Битрейт : 192 Кбит/сек
Канал(ы) : 2 канала(ов)
Расположение каналов : Front: L R
Частота : 48,0 КГц
Битовая глубина : 16 бит
Метод сжатия : С потерями
Размер потока : 60,3 Мбайт (8%)
Выравнивание : Разделение по промежуткам
Продолжительность промежутка : 42 мс. (1,00 видеокадр)
Время предзагрузки промежутка : 500 ms

Внимание! Раздача ведётся путём добавления новых серий; при каждом добавлении создётся новый торрент. Чтобы начать докачку новой серии, пользователям необходимо сделать следующее:
(1) остановить скачивание,
(2) удалить старый торрент у себя из клиента (старые серии удалять не надо),
(3) скачать новый торрент и запустить его у себя в клиенте вместо старого, при этом указать клиенту путь в старую папку куда и должно происходить скачивание новых серий.

Ваш клиент при этом должен произвести хеширование (проверку) старой папки (если не производит сам - помогите ему сделать это), и будет докачивать только те серии которых у вас ещё нет. Старые серии при этом не удаляются, а продолжают раздаваться!

Eсли вы уже удалили старые серии, то предотвратить повторную закачку старых серий можно, отжав галочку в соответсвующих местах при запуске нового торрента.


25.09.2011 г. торент обновлён, добавлена 20 серия, залит полностью!
Релиз от:






Скачать Эврика.Eureka.(сезон.04.полный).(Майк.Рол.Майкл.Ланж.Майкл.Робисан).[2010.фантастика.комедия.драма.детектив.WEB-DLRip].[LostFilm].torrent без регистрации
Золото ЗОЛОТАЯ РАЗДАЧА! СКАЧАННОЕ НЕ ЗАСЧИТЫВАЕТСЯ! Золото
Дата: Зарегистрирован   [ Тип: внутренний ] Как тут cкачать?
MAGNET ссылка
MAGNET ссылка


Скачать .torrent

23 KB

Статус: проверено DHT
Скачан: торрент - 357 раз, раздача полностью - 109 раз
Размер: 8,35 GB
Оценка:  5 (Голосов: 1)
Поблагодарили: 6
Поделиться ссылкой на эту раздачу с друзьями:
В контактеFacebookОдноклассникиTwitterLivejournalМой МирLiveinternet
 

 

lekarihka5678

[] 

Мне понравился сериальчик ag ag !!!!!
 
Показать сообщения:    


Вы не можете начинать темы
Вы не можете отвечать на сообщения
Вы не можете редактировать свои сообщения
Вы не можете удалять свои сообщения
Вы не можете голосовать в опросах
Вы не можете прикреплять файлы к сообщениям
Вы можете скачивать файлы