Loading...
Error

Скачать В петле / In the Loop (Армандо Ианнуччи) [2009, комедия, HDRip] торрент без регистрации

 
Статистика раздачи
Размер:  747 MB   |    Скачан:  147 раз

Полного источника не было: 23 минуты

 
Автор Сообщение

МихаНЕзатор

[] 

Информация о фильме
Название: В петле
Оригинальное название: In the Loop
Год выхода: 2009
Жанр: комедия
Режиссер: Армандо Ианнуччи / Armando Iannucci
В ролях: Питер Капальди /Peter Capaldi/, Гарри Хадден-Патон /Harry Hadden-Paton/, Саманта Харингтон /Samantha Harrington/, Джина МакКи /Gina McKee/, Том Холландер /Tom Hollander/, Оливия Пуле /Olivia Poulet/, Крис Эддисон /Chris Addison/, Джеймс Смит /James Smith/, Зэк Вудс /Zach Woods/, Мими Кеннеди /Mimi Kennedy/

О фильме:
Быть ли новой войне на Ближнем Востоке? Военная и антивоенная фракции в высших эшелонах британской и американской политики пытаются повернуть события в свою пользу и от того, встретятся ли нужные люди в тиши кабинетов и переспит ли девушка-практикантка с правильным человеком зависит полетят ли бомбы.


Страна: Великобритания
Студия: BBC Films, Optimum Releasing, Protagonist Pictures, IFC Films
Продолжительность: 01:45:46
Перевод: Профессиональный (многоголосый, закадровый) [телеканал ТНТ]

Файл
Кодек: XviD / MP3
Качество: HDRip
Видео: XviD, 656x352 (1.864), 23.976 fps, 850 Kbps (0.153 bit/pixel)
Звук: MP3, 48.0 KHz, 2 ch, 128 Kbps, CBR
General
Complete name : F:In the Loop (2009).avi
Format : AVI
Format/Info : Audio Video Interleave
File size : 747 MiB
Duration : 1h 45mn
Overall bit rate : 987 Kbps
Movie name : In the Loop (2009)
Writing application : VirtualDubModRus 1.5.10.2 (build 2540/release)VirtualDubMod build 2540/release
Copyright : uralmix

Video
ID : 0
Format : MPEG-4 Visual
Format profile : Advanced Simple@L5
Format settings, BVOP : 4
Format settings, QPel : No
Format settings, GMC : No warppoints
Format settings, Matrix : Default (H.263)
Codec ID : XVID
Codec ID/Hint : XviD
Duration : 1h 45mn
Bit rate : 850 Kbps
Width : 656 pixels
Height : 352 pixels
Display aspect ratio : 1.864
Frame rate : 23.976 fps
Color space : YUV
Chroma subsampling : 4:2:0
Bit depth : 8 bits
Scan type : Progressive
Compression mode : Lossy
Bits/(Pixel*Frame) : 0.153
Stream size : 643 MiB (86%)
Writing library : XviD 1.2.1 (UTC 2008-12-04)

Audio
ID : 1
Format : MPEG Audio
Format version : Version 1
Format profile : Layer 3
Codec ID : 55
Codec ID/Hint : MP3
Duration : 1h 45mn
Bit rate mode : Constant
Bit rate : 128 Kbps
Channel(s) : 2 channels
Sampling rate : 48.0 KHz
Compression mode : Lossy
Stream size : 96.8 MiB (13%)
Alignment : Aligned on interleaves
Interleave, duration : 42 ms (1.00 video frame)
Interleave, preload duration : 504 ms
Language : 5 / @5



Скачать В.петле.In.the.Loop.(Армандо.Ианнуччи).[2009.комедия.HDRip].torrent без регистрации
Золото ЗОЛОТАЯ РАЗДАЧА! СКАЧАННОЕ НЕ ЗАСЧИТЫВАЕТСЯ! Золото
Дата: Зарегистрирован   [ Тип: внутренний ] Как тут cкачать?
MAGNET ссылка
MAGNET ссылка


Скачать .torrent

15 KB

Статус: проверено DHT
Скачан: торрент - 147 раз, раздача полностью - 46 раз
Размер: 747 MB
Оценка:  1 (Голосов: 1)
Поблагодарили: 1
Поделиться ссылкой на эту раздачу с друзьями:
В контактеFacebookОдноклассникиTwitterLivejournalМой МирLiveinternet
 

 

leon030982

[] 

тупость редкостная at какой "умник" интересно назвал это комедией
 
Показать сообщения:    


Вы не можете начинать темы
Вы не можете отвечать на сообщения
Вы не можете редактировать свои сообщения
Вы не можете удалять свои сообщения
Вы не можете голосовать в опросах
Вы не можете прикреплять файлы к сообщениям
Вы можете скачивать файлы