Loading...
Error

Скачать Cерия курсов Oracle, Java [2010 г.] торрент без регистрации

 
Статистика раздачи
Размер:  33,13 GB   |    Скачан:  221 раз
Сидов:  1  [  0 KB/s  ]  
 
Автор Сообщение

maxcross

[] 

Cерия курсов Oracle, Java
Производитель: Игорь Мирончик
Год выпуска: 2010
Язык: русский
Описание: Настройка корпоративных приложений и SQL запросов для базы данных Oracle
Использование XML и Java в базе данных Oracle.
Профессиональное использование SQL и PL/SQL в Oracle 10g, 11g; Разработка приложений для Web сервера средствами PL/SQL.
Разработка WEB приложений с использованием технологии JSF, JSF-ADF для Oracle WebLogic сервера
Базовое администрирование Oracle 11-10
Видео кодек: MPEG2
Видео: Video: AVI Format : TechSmith Codec ID : tscc Codec ID/Info : TechSmith Screen Capture Duration : 1h 27mn Bit rate : 137 Kbps Width : 1 024 pixels Height : 768 pixels Display aspect ratio : 4:3 Frame rate : 15.000 fps Bits/(Pixel*Frame) : 0.012 Stream size : 85.4 MiB (28%)
Аудио: Format : PCM Format settings, Endianness : Little Format settings, Sign : Unsigned Codec ID : 1 Codec ID/Hint : Microsoft Duration : 1h 27mn Bit rate mode : Constant Bit rate : 352.8 Kbps Channel(s) : 1 channel Sampling rate : 22.05 KHz Resolution : 16 bits Stream size : 220 MiB (71%) Interleave, duration : 1000 ms (15.00 video frames) Interleave, preload duration : 1000 ms



Скачать Cерия.курсов.Oracle.Java.[2010.г.].torrent без регистрации
Золото ЗОЛОТАЯ РАЗДАЧА! СКАЧАННОЕ НЕ ЗАСЧИТЫВАЕТСЯ! Золото
Дата: Зарегистрирован   [ Тип: внутренний ] Как тут cкачать?
MAGNET ссылка
MAGNET ссылка


Скачать .torrent

220 KB

Статус: проверено DHT
Скачан: торрент - 221 раз, раздача полностью - 173 раз
Размер: 33,13 GB
Оценка:  5 (Голосов: 1)
Поблагодарили: 1
Поделиться ссылкой на эту раздачу с друзьями:
В контактеFacebookОдноклассникиTwitterLivejournalМой МирLiveinternet
 

 
Показать сообщения:    


Вы не можете начинать темы
Вы не можете отвечать на сообщения
Вы не можете редактировать свои сообщения
Вы не можете удалять свои сообщения
Вы не можете голосовать в опросах
Вы не можете прикреплять файлы к сообщениям
Вы можете скачивать файлы