Loading...
Error

Скачать Бей первым, Фредди / Sla forst, Frede (Эрик Баллинг) [1965 г., комедия, DVDRip] торрент без регистрации

 
Статистика раздачи
Размер:  1,37 GB   |    Скачан:  247 раз
Сидов:  1  [  0 KB/s  ]  
 
Автор Сообщение

МихаНЕзатор

[] 

Бей первым, Фреди! / Sla forst, Frede!
Год выпуска: 1965
Страна: Дания, NORDISK FILM
Жанр: Комедия
Продолжительность: 01:34 мин
Перевод: Профессиональный (полное дублирование)
Русские субтитры: нет
Режиссер: Эрик Баллинг / Eric Balling
В ролях: Мортен Грюнвальд, Уве Спреге, Мартин Хансен, Фрэнки Стил, Эдвард Флеминг.
Роли дублировали: Микаэла Дроздовская, Юрий Саранцев, Николай Александрович, Степан Бубнов, Владимир Кенигсон
Описание: Фредди — продавец игрушек и приколов, возвращается из командировки домой в Данию с полным чемоданом товара, намереваясь расширить свой бизнес. Но судьба распоряжается по-другому: вместо игрушечного бизнеса он вовлечен в недетскую войну двух разведок. Фредди становится подсадной уткой и должен играть роль шпиона, а для подстраховки к нему приставлен настоящий суперагент Смит. Как оказалось, Фредди не так прост. Он сам знает, как водить врага за нос, разрушать все его коварные планы и уничтожать секретные ракетные установки.
Релиз от:

Качество: DVDRip
Формат: AVI
Видео кодек: XviD
Аудио кодек: AC3
Видео: XviD, 1888 Кбит/с, 25.000 fps, 720x416 (16/9), 0.252bit/pixel
Аудио: АС3, 2ch, 192 Кбит/с

Format : MPEG-4 Visual
Format profile : Streaming Video@L1
Format settings, BVOP : Yes
Format settings, QPel : No
Format settings, GMC : No warppoints
Format settings, Matrix : Custom
Codec ID : XVID
Codec ID/Hint : XviD
Duration : 1h 34mn
Bit rate : 1885 Kbps
Width : 720 pixels
Height : 416 pixels
Display aspect ratio : 16/9
Frame rate : 25.000 fps
Resolution : 8 bits
Colorimetry : 4:2:0
Scan type : Progressive
Bits/(Pixel*Frame) : 0.252
Stream size : 1.24 GiB
Writing library : XviD 1.2.0.dev47 (UTC 2006-11-01)
Audio
Format : AC-3
Format/Info : Audio Coding 3
Codec ID : 2000
Duration : 1h 34mn
Bit rate mode : Constant
Bit rate : 192 Kbps
Channel(s) : 2 channels
Channel positions : L R
Sampling rate : 48.0 KHz
Stream size : 129 MiB






Скачать Бей.первым.Фредди.Sla.forst.Frede.(Эрик.Баллинг).[1965.г.комедия.DVDRip].torrent без регистрации
Золото ЗОЛОТАЯ РАЗДАЧА! СКАЧАННОЕ НЕ ЗАСЧИТЫВАЕТСЯ! Золото
Дата: Зарегистрирован   [ Тип: внутренний ] Как тут cкачать?
MAGNET ссылка
MAGNET ссылка


Скачать .torrent

14 KB

Статус: проверено DHT
Скачан: торрент - 247 раз, раздача полностью - 54 раз
Размер: 1,37 GB
Оценка:  - (Голосов: 0)
Поблагодарили: 2
Поделиться ссылкой на эту раздачу с друзьями:
В контактеFacebookОдноклассникиTwitterLivejournalМой МирLiveinternet
 

 
Показать сообщения:    


Вы не можете начинать темы
Вы не можете отвечать на сообщения
Вы не можете редактировать свои сообщения
Вы не можете удалять свои сообщения
Вы не можете голосовать в опросах
Вы не можете прикреплять файлы к сообщениям
Вы можете скачивать файлы