Loading...
Error

Скачать Туристас / Turistas (Джон Стокуэлл) [2006 г., ужасы, триллер, детектив, ..., BDRip] торрент без регистрации

 
Статистика раздачи
Размер:  2,04 GB   |    Скачан:  130 раз
Сидов:  1  [  0 KB/s  ]  
 
Автор Сообщение

oartemka178

[] 

Туристас / Turistas

Год выпуска: 2006
Страна: США
Жанр: ужасы, триллер, детектив, ...
Продолжительность: 01:35:51
Перевод: Профессиональный (полное дублирование)

Режиссер:

  • Джон Стокуэлл
Продюссер: Марк Бутан, Рубрия Марчинс Неграо, Дилан Расселл, ...
Сценарий: Майкл Росс

Бюджет: $10 000 000
Премьера в мире: 1 декабря 2006, ...

R - Лицам до 17 лет обязательно присутствие взрослого
5.10 (17 065)


В ролях:

  • Джош Дюамель, Мелисса Джордж, Оливия Уайлд, Десмонд Аскью, Бо Гарретт, Макс Браун, Аглес Стайб, Мигель Лунарди, Хорхе Со, Кристиани Апарекида


Описание: Компания студентов решила провести каникулы, путешествуя по Бразилии. Экзотические пейзажи, красивые животные, интересные встречи ничто не предвещало беды. Неожиданно у затерянного острова близ бразильского побережья их автобус терпит крушение, и молодые люди остаются один на один с джунглями. Труднопроходимые тропические леса хранят свои секреты. Туристы становятся жертвами кровавых экспериментов засекреченной военной группы.


Качество: BDRip
Формат: MKV
Видео кодек: H.26x
Аудио кодек: AC3
Видео: 1280x528 (16:9), 23.976fps, MPEG4 (x264) High@L5.0, 2 675 Kbps avg, 0.165 bit/pixel
Аудио: 48 kHz, Dolby AC3, 2 ch, ~384 Kbps avg


General
Unique ID : 239733559873969580606042681485898380423 (0xB45B0110DD541800B5CF8165C7AD7487)
Complete name : D:\Films\Turistas_BDRip.mkv
Format : Matroska
File size : 2.04 GiB
Duration : 1h 35mn
Overall bit rate : 3 050 Kbps
Encoded date : UTC 2011-02-06 06:40:00
Writing application : mkvmerge v4.5.0 ('Speed of Light') сборка от Feb 1 2011 02:10:32
Writing library : libebml v1.2.0 + libmatroska v1.1.0

Video
ID : 2
Format : AVC
Format/Info : Advanced Video Codec
Format profile : High@L5.0
Format settings, CABAC : Yes
Format settings, ReFrames : 16 frames
Muxing mode : Header stripping
Codec ID : V_MPEG4/ISO/AVC
Duration : 1h 35mn
Bit rate : 2 675 Kbps
Width : 1 280 pixels
Height : 528 pixels
Display aspect ratio : 2.40:1
Frame rate : 23.976 fps
Color space : YUV
Chroma subsampling : 4:2:0
Bit depth : 8 bits
Scan type : Progressive
Bits/(Pixel*Frame) : 0.165
Stream size : 1.75 GiB (85%)
Writing library : x264 core 113 r1884 7313bb5
Encoding settings : cabac=1 / ref=16 / deblock=1:-3:-3 / analyse=0x3:0x133 / me=umh / subme=8 / psy=1 / psy_rd=1.00:0.00 / mixed_ref=1 / me_range=32 / chroma_me=0 / trellis=2 / 8x8dct=1 / cqm=0 / deadzone=21,11 / fast_pskip=1 / chroma_qp_offset=-2 / threads=3 / sliced_threads=0 / nr=0 / decimate=1 / interlaced=0 / constrained_intra=0 / bframes=3 / b_pyramid=2 / b_adapt=1 / b_bias=0 / direct=1 / weightb=1 / open_gop=0 / weightp=2 / keyint=250 / keyint_min=23 / scenecut=40 / intra_refresh=0 / rc_lookahead=40 / rc=2pass / mbtree=1 / bitrate=2675 / ratetol=1.0 / qcomp=0.60 / qpmin=0 / qpmax=69 / qpstep=4 / cplxblur=20.0 / qblur=0.5 / ip_ratio=1.40 / aq=1:1.00
Language : English

Audio
ID : 1
Format : AC-3
Format/Info : Audio Coding 3
Mode extension : CM (complete main)
Muxing mode : Header stripping
Codec ID : A_AC3
Duration : 1h 35mn
Bit rate mode : Constant
Bit rate : 384 Kbps
Channel(s) : 2 channels
Channel positions : Front: L R
Sampling rate : 48.0 KHz
Bit depth : 16 bits
Compression mode : Lossy
Stream size : 264 MiB (13%)






Скачать Туристас.Turistas.(Джон.Стокуэлл).[2006.г.ужасы.триллер.детектив.BDRip].torrent без регистрации
Золото ЗОЛОТАЯ РАЗДАЧА! СКАЧАННОЕ НЕ ЗАСЧИТЫВАЕТСЯ! Золото
Дата: Зарегистрирован   [ Тип: внутренний ] Как тут cкачать?
MAGNET ссылка
MAGNET ссылка


Скачать .torrent

11 KB

Статус: проверено DHT
Скачан: торрент - 130 раз, раздача полностью - 19 раз
Размер: 2,04 GB
Оценка:  5 (Голосов: 1)
Поблагодарили: 2
Поделиться ссылкой на эту раздачу с друзьями:
В контактеFacebookОдноклассникиTwitterLivejournalМой МирLiveinternet
 

 
Показать сообщения:    


Вы не можете начинать темы
Вы не можете отвечать на сообщения
Вы не можете редактировать свои сообщения
Вы не можете удалять свои сообщения
Вы не можете голосовать в опросах
Вы не можете прикреплять файлы к сообщениям
Вы можете скачивать файлы