Loading...
Error

Скачать Читающий мысли / The Listener (сезон 01+Back Story) (Клемент Вирго, Кари Скогланд, Чарльз Бинами) [2009, фэнтези, драма, криминал, DVDRip] торрент без регистрации

 
Статистика раздачи
Размер:  4,97 GB   |    Скачан:  607 раз
Сидов:  1  [  0 KB/s  ]  
 
Автор Сообщение

МихаНЕзатор

[] 

Информация о фильме
Название: Читающий мысли
Оригинальное название: The Listener
Год выхода: 2009
Жанр: фэнтези, драма, криминал
Режиссер: Клемент Вирго, Кари Скогланд, Чарльз Бинами
В ролях: Крейг Олейник, Лиза Маркос, Эннис Эсмер, Милен Дин-Робик

О фильме:
Тоби Логан 28-летний парамедик, обладающий способностью читать мысли людей. В один прекрасный день он решает использовать свой дар на благо других людей и помогать раскрывать преступления.

Официальный сайт

Страна: Канада
Продолжительность: ~40 минут серия
Перевод: Профессиональный (многоголосый, закадровый) [FoxLife] / Оригинал

Файл
Кодек: XviD / MP3
Качество: DVDRip
Видео: 640x352 (16:9), 25 fps, ~1100 kbps, 0.194 bit/pixel
Звук:
MP3, 48 kHz, 2 ch, 128 kbps [rus]
MP3, 48 kHz, 2 ch, 128 kbps [eng]
Субтитры: английский (отдельно)
General
Complete name : the.listener.s01e01.rus.avi
Format : AVI
Format/Info : Audio Video Interleave
File size : 388 MiB
Duration : 39mn 32s
Overall bit rate : 1 370 Kbps
Writing application : VirtualDubMod 1.5.10.1 (build 2366/release)
Writing library : VirtualDubMod build 2366/release

Video
ID : 0
Format : MPEG-4 Visual
Format profile : Advanced Simple@L5
Format settings, BVOP : Yes
Format settings, QPel : No
Format settings, GMC : No warppoints
Format settings, Matrix : Default (H.263)
Muxing mode : Packed bitstream
Codec ID : XVID
Codec ID/Hint : XviD
Duration : 39mn 32s
Bit rate : 1 094 Kbps
Width : 640 pixels
Height : 352 pixels
Display aspect ratio : 16:9
Frame rate : 25.000 fps
Color space : YUV
Chroma subsampling : 4:2:0
Bit depth : 8 bits
Scan type : Progressive
Bits/(Pixel*Frame) : 0.194
Stream size : 309 MiB (80%)
Writing library : XviD 1.2.1 (UTC 2008-12-04)

Audio #1
ID : 1
Format : MPEG Audio
Format version : Version 1
Format profile : Layer 3
Mode : Joint stereo
Mode extension : MS Stereo
Codec ID : 55
Codec ID/Hint : MP3
Duration : 39mn 32s
Bit rate mode : Constant
Bit rate : 128 Kbps
Channel(s) : 2 channels
Sampling rate : 48.0 KHz
Stream size : 36.2 MiB (9%)
Alignment : Aligned on interleaves
Interleave, duration : 40 ms (1.00 video frame)
Interleave, preload duration : 504 ms

Audio #2
ID : 2
Format : MPEG Audio
Format version : Version 1
Format profile : Layer 3
Mode : Joint stereo
Mode extension : MS Stereo
Codec ID : 55
Codec ID/Hint : MP3
Duration : 39mn 32s
Bit rate mode : Variable
Bit rate : 128 Kbps
Channel(s) : 2 channels
Sampling rate : 48.0 KHz
Stream size : 37.0 MiB (10%)
Alignment : Aligned on interleaves
Interleave, duration : 24 ms (0.60 video frame)
Interleave, preload duration : 278 ms
Writing library : LAME3.96r
Encoding settings : -m j -V 4 -q 3 -lowpass 17.5 --abr 128



Скачать Читающий.мысли.The.Listener.(сезон.01+Back.Story).(Клемент.Вирго.Кари.Скогланд.Чарльз.Бинами).[2009.фэнтези.драма.криминал.DVDRip].torrent без регистрации
Золото ЗОЛОТАЯ РАЗДАЧА! СКАЧАННОЕ НЕ ЗАСЧИТЫВАЕТСЯ! Золото
Дата: Зарегистрирован   [ Тип: внутренний ] Как тут cкачать?
MAGNET ссылка
MAGNET ссылка


Скачать .torrent

27 KB

Статус: проверено DHT
Скачан: торрент - 607 раз, раздача полностью - 1826 раз
Размер: 4,97 GB
Оценка:  4 (Голосов: 2)
Поблагодарили: 14
Поделиться ссылкой на эту раздачу с друзьями:
В контактеFacebookОдноклассникиTwitterLivejournalМой МирLiveinternet
 

 

[] 

Топик был перенесен из форума Зарубежные сериалы в форум Читающий мысли / The Listener

Shara
 

leon030982

[] 

как фильм ab ?
 
Показать сообщения:    


Вы не можете начинать темы
Вы не можете отвечать на сообщения
Вы не можете редактировать свои сообщения
Вы не можете удалять свои сообщения
Вы не можете голосовать в опросах
Вы не можете прикреплять файлы к сообщениям
Вы можете скачивать файлы